<?xml version="1.0" standalone="no"?>
<!DOCTYPE svg PUBLIC "-//W3C//DTD SVG 1.1//EN" "http://www.w3.org/Graphics/SVG/1.1/DTD/svg11.dtd" >
<svg xmlns="http://www.w3.org/2000/svg">
<metadata>Generated by IcoMoon</metadata>
<defs>
<font id="limnu-icons" horiz-adv-x="1024">
<font-face units-per-em="1024" ascent="960" descent="-64" />
<missing-glyph horiz-adv-x="1024" />
<glyph unicode="&#x20;" horiz-adv-x="512" d="" />
<glyph unicode="&#xe600;" glyph-name="ice-cream" d="M870.4 384c0 29.766-14.302 73.214-81.507 112.6 24.258 24.582 30.307 48.709 30.307 66.6 0 46.522-40.453 89.754-106.208 119.464 2.528 11.126 3.808 22.538 3.808 34.136 0 84.696-68.904 153.6-153.6 153.6-3.566 0-9.822 0.422-11.672 3.248-6.398 9.771-0.118 41.189 9.501 63.234 3.938 8.942 2.44 19.347-3.858 26.819-6.299 7.47-16.302 10.706-25.781 8.334-9.154-2.288-224.19-57.736-224.19-204.654 0-12.613 1.587-25.141 4.6-37.314-67.451-33.533-107-85.174-107-141.267 0-8.928 1.016-17.925 2.979-26.896-35.506-37.459-54.179-80.981-54.179-126.704 0-19.864 3.52-39.285 10.355-57.928l39.362-291.218c1.691-12.509 9.106-27.482 18.034-36.408 4.117-4.118 103.003-100.846 290.65-100.846s286.533 96.728 290.65 100.846c8.818 8.818 16.302 23.579 18.203 35.898l39.522 255.939c6.624 13.648 10.026 27.883 10.026 42.517zM230.546 509.422c6.882-10.418 15.067-20.51 24.494-30.101 31.413-31.952 74.906-56.416 122.467-68.885 2.176-0.571 4.36-0.843 6.509-0.843 11.357 0 21.731 7.614 24.746 19.114 3.586 13.677-4.595 27.67-18.27 31.254-38.766 10.165-73.904 29.787-98.941 55.254-22.925 23.318-35.55 49.451-35.55 73.584 0 35.448 28.021 69.682 76.037 94.149 3.118-4.882 6.485-9.622 10.149-14.16 22.57-27.957 53.83-47.098 88.021-53.898 1.686-0.334 3.365-0.496 5.021-0.496 11.963 0 22.659 8.43 25.082 20.611 2.758 13.867-6.248 27.344-20.115 30.102-46.63 9.274-81.794 53.242-81.794 102.272 0 73.36 86.232 118.746 141.083 140.192-3.166-20.768-2.544-43.954 9.155-61.89 7.882-12.082 23.744-26.483 54.562-26.483 56.464 0 102.4-45.936 102.4-102.4 0-5.432-0.435-10.795-1.266-16.074-22.216 6.686-46.269 12.040-71.802 15.8-13.989 2.070-26.997-7.61-29.056-21.597-2.061-13.989 7.61-26.997 21.597-29.058 112.989-16.64 182.926-66.251 182.926-102.672 0-16.942-15.419-32.133-29.341-42.394-41.965 16.616-91.714 28.822-146.621 35.826-14.016 1.781-26.843-8.13-28.634-22.155-1.789-14.026 8.13-26.845 22.155-28.634 133.198-16.989 233.64-69.37 233.64-121.843 0-29.706-32.606-60.717-89.458-85.082-64.578-27.677-150.998-42.918-243.342-42.918-77.058 0-149.16 19.776-203.024 55.685-50.67 33.781-78.576 77.646-78.576 123.515 0 25.75 8.811 50.958 25.746 74.222zM766.43 85.835c-1.55-1.493-23.642-22.403-64.645-42.998-38.907-19.541-103.414-42.837-189.786-42.837s-150.878 23.296-189.786 42.837c-40.861 20.523-62.942 41.362-64.629 42.982-1.242 1.416-3.213 5.408-3.531 7.094l-26.614 196.909c8.499-7.235 17.677-14.166 27.536-20.738 62.181-41.454 144.37-64.285 231.424-64.285 99.12 0 192.704 16.712 263.51 47.058 18.218 7.808 34.49 16.373 48.766 25.566l-28.411-183.99c-0.374-1.899-2.509-6.118-3.835-7.598z" />
<glyph unicode="&#xe601;" glyph-name="cog" d="M390.71-35.955c-2.109 0-4.248 0.262-6.378 0.81-45.976 11.803-90.149 30.042-131.291 54.21-11.923 7.003-16.13 22.21-9.501 34.344 8.15 14.925 12.459 31.866 12.459 48.992 0 56.464-45.936 102.4-102.4 102.4-17.125 0-34.066-4.309-48.992-12.459-12.133-6.627-27.339-2.421-34.342 9.501-24.17 41.142-42.408 85.315-54.211 131.293-3.333 12.989 3.92 26.349 16.629 30.629 41.699 14.037 69.717 53.034 69.717 97.037s-28.018 83-69.718 97.040c-12.707 4.278-19.962 17.638-16.627 30.627 11.803 45.976 30.042 90.149 54.211 131.291 7.003 11.923 22.21 16.13 34.344 9.501 14.923-8.15 31.864-12.459 48.99-12.459 56.464 0 102.4 45.936 102.4 102.4 0 17.126-4.309 34.067-12.459 48.99-6.629 12.134-2.422 27.341 9.501 34.344 41.141 24.168 85.314 42.408 131.291 54.211 12.994 3.334 26.349-3.92 30.627-16.627 14.040-41.701 53.037-69.718 97.040-69.718s83 28.018 97.038 69.717c4.28 12.71 17.645 19.965 30.629 16.629 45.976-11.802 90.15-30.042 131.293-54.211 11.922-7.003 16.128-22.208 9.501-34.342-8.152-14.926-12.461-31.867-12.461-48.992 0-56.464 45.936-102.4 102.4-102.4 17.126 0 34.067 4.309 48.992 12.459 12.138 6.629 27.341 2.421 34.344-9.501 24.166-41.141 42.406-85.314 54.21-131.291 3.334-12.989-3.918-26.349-16.627-30.627-41.701-14.040-69.718-53.037-69.718-97.040s28.018-83 69.718-97.038c12.707-4.28 19.962-17.638 16.627-30.629-11.803-45.976-30.042-90.15-54.21-131.291-7.005-11.925-22.208-16.128-34.344-9.502-14.926 8.152-31.867 12.461-48.992 12.461-56.464 0-102.4-45.936-102.4-102.4 0-17.125 4.309-34.066 12.461-48.992 6.627-12.136 2.421-27.341-9.502-34.344-41.141-24.166-85.314-42.406-131.291-54.21-12.992-3.336-26.349 3.918-30.629 16.627-14.038 41.701-53.035 69.718-97.038 69.718s-83-28.018-97.040-69.718c-3.578-10.624-13.502-17.437-24.25-17.437zM512 102.4c57.715 0 109.693-32.138 135.917-82.029 26.637 8.218 52.507 18.875 77.299 31.846-5.541 16.077-8.416 33.075-8.416 50.182 0 84.696 68.904 153.6 153.6 153.6 17.107 0 34.106-2.875 50.181-8.418 12.971 24.792 23.63 50.662 31.846 77.299-49.89 26.226-82.027 78.203-82.027 135.918s32.138 109.691 82.029 135.918c-8.218 26.637-18.875 52.506-31.846 77.299-16.077-5.542-33.074-8.418-50.182-8.418-84.696 0-153.6 68.904-153.6 153.6 0 17.107 2.875 34.106 8.418 50.181-24.792 12.971-50.662 23.63-77.299 31.846-26.226-49.89-78.203-82.027-135.918-82.027s-109.691 32.138-135.917 82.027c-26.637-8.216-52.507-18.874-77.299-31.846 5.542-16.075 8.416-33.072 8.416-50.181 0-84.696-68.904-153.6-153.6-153.6-17.109 0-34.106 2.874-50.181 8.418-12.973-24.794-23.63-50.662-31.846-77.299 49.89-26.227 82.027-78.203 82.027-135.918s-32.138-109.693-82.027-135.917c8.216-26.637 18.875-52.507 31.846-77.299 16.075 5.541 33.074 8.416 50.181 8.416 84.696 0 153.6-68.904 153.6-153.6 0-17.109-2.875-34.106-8.418-50.181 24.794-12.971 50.662-23.63 77.299-31.846 26.227 49.89 78.203 82.027 135.918 82.027zM512 307.2c-84.696 0-153.6 68.904-153.6 153.6s68.904 153.6 153.6 153.6 153.6-68.904 153.6-153.6-68.904-153.6-153.6-153.6zM512 563.2c-56.464 0-102.4-45.936-102.4-102.4s45.936-102.4 102.4-102.4c56.464 0 102.4 45.936 102.4 102.4s-45.936 102.4-102.4 102.4z" />
<glyph unicode="&#xe602;" glyph-name="file-plus" d="M917.806 730.924c-22.212 30.292-53.174 65.7-87.178 99.704s-69.412 64.964-99.704 87.178c-51.574 37.82-76.592 42.194-90.924 42.194h-496c-44.112 0-80-35.888-80-80v-864c0-44.112 35.888-80 80-80h400c17.674 0 32 14.326 32 32s-14.326 32-32 32h-400c-8.672 0-16 7.328-16 16v864c0 8.672 7.328 16 16 16 0 0 495.956 0.002 496 0v-224c0-17.672 14.326-32 32-32h224v-224c0-17.674 14.326-32 32-32s32 14.326 32 32v224c0 14.332-4.372 39.35-42.194 90.924zM704 704v153.946c22.984-17.78 50.678-41.878 81.374-72.574 30.7-30.7 54.8-58.398 72.58-81.374h-153.954zM1024 192h-128v128h-128v-128h-128v-128h128v-128h128v128h128z" />
<glyph unicode="&#xe603;" glyph-name="key" d="M960 576h-482.256c-44.264 76.516-126.99 128-221.744 128-141.384 0-256-114.616-256-256 0-141.382 114.616-256 256-256 94.754 0 177.478 51.484 221.744 128h34.256l64 64h64v-64h64l64 64h64v-64h64l128 128-64 128zM192 357.49c-49.988 0-90.51 40.524-90.51 90.51 0 49.988 40.522 90.51 90.51 90.51s90.51-40.522 90.51-90.51c0-49.986-40.522-90.51-90.51-90.51zM512 480v32h384l16-32h-400z" />
<glyph unicode="&#xe604;" glyph-name="cross" d="M548.203 435.2l289.099 289.098c9.998 9.998 9.998 26.206 0 36.205-9.997 9.997-26.206 9.997-36.203 0l-289.099-289.099-289.098 289.099c-9.998 9.997-26.206 9.997-36.205 0-9.997-9.998-9.997-26.206 0-36.205l289.099-289.098-289.099-289.099c-9.997-9.997-9.997-26.206 0-36.203 5-4.998 11.55-7.498 18.102-7.498s13.102 2.499 18.102 7.499l289.098 289.098 289.099-289.099c4.998-4.998 11.549-7.498 18.101-7.498s13.102 2.499 18.101 7.499c9.998 9.997 9.998 26.206 0 36.203l-289.098 289.098z" />
<glyph unicode="&#xe605;" glyph-name="magnifier" d="M966.070-8.301l-304.302 331.965c68.573 71.754 106.232 165.549 106.232 265.136 0 102.57-39.942 199-112.47 271.53s-168.96 112.47-271.53 112.47-199-39.942-271.53-112.47-112.47-168.96-112.47-271.53 39.942-199.002 112.47-271.53 168.96-112.47 271.53-112.47c88.362 0 172.152 29.667 240.043 84.248l304.285-331.947c5.050-5.507 11.954-8.301 18.878-8.301 6.179 0 12.378 2.226 17.293 6.728 10.421 9.555 11.126 25.749 1.571 36.171zM51.2 588.8c0 183.506 149.294 332.8 332.8 332.8s332.8-149.294 332.8-332.8-149.294-332.8-332.8-332.8-332.8 149.294-332.8 332.8z" />
<glyph unicode="&#xe606;" glyph-name="sort-amount-desc" d="M453.301 222.901c-9.997 9.997-26.206 9.997-36.203 0l-161.098-161.098v885.397c0 14.138-11.462 25.6-25.6 25.6s-25.6-11.462-25.6-25.6v-885.397l-161.099 161.098c-9.997 9.997-26.206 9.997-36.203 0s-9.998-26.206 0-36.203l204.8-204.8c5-4.998 11.55-7.498 18.102-7.498s13.102 2.499 18.101 7.499l204.8 204.8c9.998 9.997 9.998 26.205 0 36.202zM691.2 102.4h-102.4c-14.139 0-25.6 11.461-25.6 25.6v102.4c0 14.139 11.461 25.6 25.6 25.6h102.4c14.139 0 25.6-11.461 25.6-25.6v-102.4c0-14.139-11.461-25.6-25.6-25.6zM614.4 153.6h51.2v51.2h-51.2v-51.2zM793.6 307.2h-204.8c-14.139 0-25.6 11.461-25.6 25.6v102.4c0 14.139 11.461 25.6 25.6 25.6h204.8c14.139 0 25.6-11.461 25.6-25.6v-102.4c0-14.139-11.461-25.6-25.6-25.6zM614.4 358.4h153.6v51.2h-153.6v-51.2zM896 512h-307.2c-14.139 0-25.6 11.462-25.6 25.6v102.4c0 14.138 11.461 25.6 25.6 25.6h307.2c14.139 0 25.6-11.462 25.6-25.6v-102.4c0-14.138-11.461-25.6-25.6-25.6zM614.4 563.2h256v51.2h-256v-51.2zM998.4 716.8h-409.6c-14.139 0-25.6 11.462-25.6 25.6v102.4c0 14.138 11.461 25.6 25.6 25.6h409.6c14.139 0 25.6-11.462 25.6-25.6v-102.4c0-14.138-11.461-25.6-25.6-25.6zM614.4 768h358.4v51.2h-358.4v-51.2z" />
<glyph unicode="&#xe607;" glyph-name="icons" d="M179.2 0h-102.4c-42.347 0-76.8 34.453-76.8 76.8v102.4c0 42.347 34.453 76.8 76.8 76.8h102.4c42.347 0 76.8-34.453 76.8-76.8v-102.4c0-42.347-34.453-76.8-76.8-76.8zM76.8 204.8c-14.115 0-25.6-11.485-25.6-25.6v-102.4c0-14.115 11.485-25.6 25.6-25.6h102.4c14.115 0 25.6 11.485 25.6 25.6v102.4c0 14.115-11.485 25.6-25.6 25.6h-102.4zM537.6 0h-102.4c-42.347 0-76.8 34.453-76.8 76.8v102.4c0 42.347 34.453 76.8 76.8 76.8h102.4c42.347 0 76.8-34.453 76.8-76.8v-102.4c0-42.347-34.453-76.8-76.8-76.8zM435.2 204.8c-14.115 0-25.6-11.485-25.6-25.6v-102.4c0-14.115 11.485-25.6 25.6-25.6h102.4c14.115 0 25.6 11.485 25.6 25.6v102.4c0 14.115-11.485 25.6-25.6 25.6h-102.4zM896 0h-102.4c-42.347 0-76.8 34.453-76.8 76.8v102.4c0 42.347 34.453 76.8 76.8 76.8h102.4c42.347 0 76.8-34.453 76.8-76.8v-102.4c0-42.347-34.453-76.8-76.8-76.8zM793.6 204.8c-14.115 0-25.6-11.485-25.6-25.6v-102.4c0-14.115 11.485-25.6 25.6-25.6h102.4c14.115 0 25.6 11.485 25.6 25.6v102.4c0 14.115-11.485 25.6-25.6 25.6h-102.4zM179.2 358.4h-102.4c-42.347 0-76.8 34.453-76.8 76.8v102.4c0 42.347 34.453 76.8 76.8 76.8h102.4c42.347 0 76.8-34.453 76.8-76.8v-102.4c0-42.347-34.453-76.8-76.8-76.8zM76.8 563.2c-14.115 0-25.6-11.485-25.6-25.6v-102.4c0-14.115 11.485-25.6 25.6-25.6h102.4c14.115 0 25.6 11.485 25.6 25.6v102.4c0 14.115-11.485 25.6-25.6 25.6h-102.4zM537.6 358.4h-102.4c-42.347 0-76.8 34.453-76.8 76.8v102.4c0 42.347 34.453 76.8 76.8 76.8h102.4c42.347 0 76.8-34.453 76.8-76.8v-102.4c0-42.347-34.453-76.8-76.8-76.8zM435.2 563.2c-14.115 0-25.6-11.485-25.6-25.6v-102.4c0-14.115 11.485-25.6 25.6-25.6h102.4c14.115 0 25.6 11.485 25.6 25.6v102.4c0 14.115-11.485 25.6-25.6 25.6h-102.4zM896 358.4h-102.4c-42.347 0-76.8 34.453-76.8 76.8v102.4c0 42.347 34.453 76.8 76.8 76.8h102.4c42.347 0 76.8-34.453 76.8-76.8v-102.4c0-42.347-34.453-76.8-76.8-76.8zM793.6 563.2c-14.115 0-25.6-11.485-25.6-25.6v-102.4c0-14.115 11.485-25.6 25.6-25.6h102.4c14.115 0 25.6 11.485 25.6 25.6v102.4c0 14.115-11.485 25.6-25.6 25.6h-102.4zM179.2 716.8h-102.4c-42.347 0-76.8 34.453-76.8 76.8v102.4c0 42.347 34.453 76.8 76.8 76.8h102.4c42.347 0 76.8-34.453 76.8-76.8v-102.4c0-42.347-34.453-76.8-76.8-76.8zM76.8 921.6c-14.115 0-25.6-11.485-25.6-25.6v-102.4c0-14.115 11.485-25.6 25.6-25.6h102.4c14.115 0 25.6 11.485 25.6 25.6v102.4c0 14.115-11.485 25.6-25.6 25.6h-102.4zM537.6 716.8h-102.4c-42.347 0-76.8 34.453-76.8 76.8v102.4c0 42.347 34.453 76.8 76.8 76.8h102.4c42.347 0 76.8-34.453 76.8-76.8v-102.4c0-42.347-34.453-76.8-76.8-76.8zM435.2 921.6c-14.115 0-25.6-11.485-25.6-25.6v-102.4c0-14.115 11.485-25.6 25.6-25.6h102.4c14.115 0 25.6 11.485 25.6 25.6v102.4c0 14.115-11.485 25.6-25.6 25.6h-102.4zM896 716.8h-102.4c-42.347 0-76.8 34.453-76.8 76.8v102.4c0 42.347 34.453 76.8 76.8 76.8h102.4c42.347 0 76.8-34.453 76.8-76.8v-102.4c0-42.347-34.453-76.8-76.8-76.8zM793.6 921.6c-14.115 0-25.6-11.485-25.6-25.6v-102.4c0-14.115 11.485-25.6 25.6-25.6h102.4c14.115 0 25.6 11.485 25.6 25.6v102.4c0 14.115-11.485 25.6-25.6 25.6h-102.4z" />
<glyph unicode="&#xe608;" glyph-name="menu" d="M896 665.6h-768c-14.138 0-25.6 11.462-25.6 25.6s11.462 25.6 25.6 25.6h768c14.139 0 25.6-11.462 25.6-25.6s-11.461-25.6-25.6-25.6zM896 409.6h-768c-14.138 0-25.6 11.461-25.6 25.6s11.462 25.6 25.6 25.6h768c14.139 0 25.6-11.461 25.6-25.6s-11.461-25.6-25.6-25.6zM896 153.6h-768c-14.138 0-25.6 11.461-25.6 25.6s11.462 25.6 25.6 25.6h768c14.139 0 25.6-11.461 25.6-25.6s-11.461-25.6-25.6-25.6z" />
<glyph unicode="&#xe609;" glyph-name="user-plus" d="M486.4 409.6c-155.275 0-281.6 126.325-281.6 281.6s126.325 281.6 281.6 281.6 281.6-126.325 281.6-281.6-126.325-281.6-281.6-281.6zM486.4 921.6c-127.043 0-230.4-103.357-230.4-230.4s103.357-230.4 230.4-230.4c127.042 0 230.4 103.357 230.4 230.4s-103.358 230.4-230.4 230.4zM588.8-51.2h-512c-42.347 0-76.8 34.453-76.8 76.8 0 3.485 0.714 86.285 62.72 168.96 36.094 48.126 85.514 86.36 146.883 113.634 74.957 33.314 168.085 50.206 276.797 50.206 17.962 0 35.723-0.539 52.792-1.603 14.11-0.878 24.837-13.032 23.958-27.142-0.88-14.112-13.067-24.858-27.142-23.958-16.013 0.998-32.704 1.504-49.608 1.504-178.52 0-310.267-48.789-381-141.093-53.011-69.174-54.195-139.904-54.2-140.61 0-14.013 11.485-25.498 25.6-25.498h512c14.139 0 25.6-11.461 25.6-25.6s-11.461-25.6-25.6-25.6zM793.6-51.2c-127.043 0-230.4 103.357-230.4 230.4s103.357 230.4 230.4 230.4 230.4-103.357 230.4-230.4-103.357-230.4-230.4-230.4zM793.6 358.4c-98.811 0-179.2-80.389-179.2-179.2s80.389-179.2 179.2-179.2 179.2 80.389 179.2 179.2-80.389 179.2-179.2 179.2zM896 204.8h-76.8v76.8c0 14.139-11.461 25.6-25.6 25.6s-25.6-11.461-25.6-25.6v-76.8h-76.8c-14.139 0-25.6-11.461-25.6-25.6s11.461-25.6 25.6-25.6h76.8v-76.8c0-14.139 11.461-25.6 25.6-25.6s25.6 11.461 25.6 25.6v76.8h76.8c14.139 0 25.6 11.461 25.6 25.6s-11.461 25.6-25.6 25.6z" />
<glyph unicode="&#xe60a;" glyph-name="bubbles" d="M998.432 51.2c-0.010 0.002-0.024 0.002-0.032 0-68.667 0-139.989 43.834-166.232 61.722-28.819-6.986-58.955-10.522-89.768-10.522-73.584 0-143.085 20.285-195.699 57.114-55.394 38.778-85.901 91.226-85.901 147.686s30.507 108.909 85.901 147.686c52.614 36.83 122.115 57.114 195.699 57.114s143.085-20.283 195.699-57.114c55.395-38.778 85.901-91.226 85.901-147.686 0-49.368-23.614-96.099-66.843-132.963 4.197-11.805 17.358-37.205 58.616-78.605 5.078-4.678 8.259-11.384 8.259-18.834 0-14.138-11.462-25.598-25.6-25.598zM837.254 166.301c5.52 0 10.962-1.786 15.461-5.195 0.499-0.376 34.571-25.83 76.976-43.093-27.834 40.69-27.155 63.877-24.605 73.629 1.462 5.59 4.771 10.52 9.39 13.99 37.611 28.254 58.323 64.326 58.323 101.568 0 39.27-22.752 76.824-64.061 105.741-44.090 30.862-103.163 47.859-166.339 47.859s-122.25-16.997-166.339-47.859c-41.309-28.917-64.061-66.47-64.061-105.741s22.752-76.824 64.061-105.741c44.090-30.862 103.163-47.859 166.339-47.859 30.451 0 60.048 3.955 87.966 11.757 2.267 0.632 4.587 0.944 6.888 0.944zM25.6 0c-11.507 0-21.6 7.677-24.67 18.766-3.072 11.090 1.634 22.864 11.501 28.784 86.57 51.942 122.485 127.414 135.218 162.755-94.088 72.048-147.648 171.746-147.648 276.094 0 52.704 13.23 103.755 39.323 151.736 24.902 45.794 60.406 86.806 105.526 121.899 91.504 71.17 212.802 110.365 341.55 110.365 116.659 0 229.429-32.992 317.536-92.898 88.816-60.387 146.979-143.942 163.776-235.272 2.557-13.906-6.642-27.251-20.547-29.808-13.902-2.55-27.251 6.64-29.81 20.547-14.301 77.757-64.805 149.565-142.21 202.194-79.702 54.192-182.248 84.037-288.746 84.037-239.97 0-435.2-149.294-435.2-332.8 0-92.946 51.432-182.379 141.107-245.368 8.797-6.178 12.795-17.194 10.013-27.576-5.984-22.325-26.363-83.597-80.878-142.734 66.659 23.341 138.424 63.832 191.434 100.286 6.296 4.328 14.197 5.621 21.544 3.52 48.558-13.888 99.691-20.928 151.981-20.928 14.138 0 25.6-11.461 25.6-25.6s-11.462-25.6-25.6-25.6c-52.907 0-104.8 6.627-154.437 19.707-21.974-14.637-63.040-40.603-112.086-65.005-76.163-37.89-141.528-57.102-194.277-57.102z" />
<glyph unicode="&#xe60b;" glyph-name="bubble-text" d="M25.6 0c-11.507 0-21.6 7.677-24.67 18.766s1.634 22.864 11.501 28.784c86.566 51.941 122.483 127.413 135.216 162.755-94.086 72.048-147.646 171.746-147.646 276.094 0 52.704 13.23 103.755 39.323 151.736 24.902 45.794 60.406 86.806 105.526 121.899 91.504 71.17 212.802 110.365 341.55 110.365s250.046-39.195 341.552-110.366c45.118-35.093 80.624-76.104 105.526-121.899 26.091-47.979 39.322-99.030 39.322-151.734 0-52.702-13.23-103.755-39.322-151.736-24.902-45.794-60.408-86.806-105.526-121.899-91.506-71.17-212.803-110.365-341.552-110.365-52.907 0-104.8 6.627-154.437 19.707-21.974-14.637-63.040-40.605-112.086-65.005-76.163-37.89-141.528-57.102-194.277-57.102zM486.4 819.2c-239.97 0-435.2-149.294-435.2-332.8 0-92.946 51.432-182.379 141.107-245.368 8.797-6.178 12.795-17.194 10.011-27.576-5.984-22.325-26.365-83.598-80.88-142.736 66.664 23.339 138.422 63.83 191.435 100.288 6.298 4.328 14.2 5.619 21.544 3.52 48.558-13.888 99.693-20.928 151.982-20.928 239.97 0 435.2 149.294 435.2 332.8s-195.23 332.8-435.2 332.8zM691.2 614.4h-409.6c-14.138 0-25.6 11.462-25.6 25.6s11.462 25.6 25.6 25.6h409.6c14.139 0 25.6-11.462 25.6-25.6s-11.461-25.6-25.6-25.6zM691.2 512h-409.6c-14.138 0-25.6 11.462-25.6 25.6s11.462 25.6 25.6 25.6h409.6c14.139 0 25.6-11.462 25.6-25.6s-11.461-25.6-25.6-25.6zM691.2 409.6h-409.6c-14.138 0-25.6 11.461-25.6 25.6s11.462 25.6 25.6 25.6h409.6c14.139 0 25.6-11.461 25.6-25.6s-11.461-25.6-25.6-25.6zM588.8 307.2h-307.2c-14.138 0-25.6 11.461-25.6 25.6s11.462 25.6 25.6 25.6h307.2c14.139 0 25.6-11.461 25.6-25.6s-11.461-25.6-25.6-25.6z" />
<glyph unicode="&#xe60c;" glyph-name="arrow-down2" d="M1024 608l-64 64-448-448-448 448-64-64 511.998-512 512.002 512z" />
<glyph unicode="&#xe60d;" glyph-name="redo" d="M26.573 121.958c2.816-28.774 26.778-48.794 54.835-46.49h0.051c18.483 1.536 34.662 13.517 42.291 31.078l1.229 2.97c56.525 143.667 141.824 207.514 294.144 220.262l143.821 12.032 11.008-131.686c2.406-28.672 27.341-50.125 55.552-47.718 10.854 0.922 20.941 5.274 29.338 12.646l344.269 305.254c12.442 11.11 18.842 26.931 17.459 43.622s-10.342 31.232-24.474 40.090l-390.195 243.814c-9.523 5.939-20.173 8.55-31.027 7.629-28.211-2.355-49.254-27.597-46.848-56.32l11.008-131.635-81.51-6.81c-280.832-23.501-453.939-223.898-430.95-498.739zM67.328 124.979c-21.299 254.72 133.171 433.101 393.574 454.861l101.99 8.55c11.264 0.973 19.661 10.854 18.688 22.118l-12.698 152.064c-0.666 7.731 5.12 11.725 9.421 12.083 1.997 0.154 3.994-0.358 5.888-1.536l390.195-243.866c4.25-2.662 5.222-6.605 5.376-8.755s-0.102-6.246-3.84-9.626l-344.32-305.203c-1.69-1.485-3.533-2.355-5.53-2.509-4.25-0.41-10.65 2.662-11.315 10.291l-12.749 152.115c-0.922 11.315-10.854 19.661-22.118 18.688l-164.25-13.773c-168.192-14.029-266.547-87.706-328.858-246.221-3.072-7.066-7.168-7.936-8.806-8.090v0c-2.662-0.102-9.882 0.922-10.65 8.806z" />
<glyph unicode="&#xe60e;" glyph-name="move" d="M939.701 453.301l-153.6 153.6c-9.997 9.998-26.206 9.998-36.203 0-9.998-9.997-9.998-26.206 0-36.203l109.899-109.898h-347.797v347.797l109.899-109.898c4.998-5 11.549-7.499 18.101-7.499s13.102 2.499 18.101 7.499c9.998 9.997 9.998 26.206 0 36.203l-153.6 153.6c-9.997 9.998-26.206 9.998-36.203 0l-153.6-153.6c-9.998-9.997-9.998-26.206 0-36.203s26.206-9.998 36.203 0l109.899 109.898v-347.797h-347.797l109.898 109.899c9.998 9.997 9.998 26.206 0 36.203-9.997 9.998-26.206 9.998-36.203 0l-153.6-153.6c-9.998-9.997-9.998-26.206 0-36.203l153.6-153.6c5-5 11.55-7.499 18.102-7.499s13.102 2.499 18.101 7.499c9.998 9.997 9.998 26.206 0 36.203l-109.898 109.898h347.797v-347.797l-109.899 109.899c-9.997 9.997-26.206 9.997-36.203 0-9.998-9.997-9.998-26.206 0-36.203l153.6-153.6c5-5 11.55-7.499 18.102-7.499s13.102 2.499 18.101 7.499l153.6 153.6c9.998 9.997 9.998 26.206 0 36.203-9.997 9.997-26.206 9.997-36.203 0l-109.898-109.899v347.797h347.797l-109.899-109.899c-9.998-9.997-9.998-26.206 0-36.203 5-4.998 11.55-7.498 18.102-7.498s13.102 2.499 18.101 7.499l153.6 153.6c9.998 9.997 9.998 26.205 0 36.202z" />
<glyph unicode="&#xe60f;" glyph-name="arrow-right" d="M352 960l-64-64 448-448-448-448 64-64 512 511.998-512 512.002z" />
<glyph unicode="&#xe610;" glyph-name="arrow-left" d="M672-64l64 64-448 448 448 448-64 64-512-511.998 512-512.002z" />
<glyph unicode="&#xe611;" glyph-name="picture" d="M947.2-51.2h-870.4c-42.347 0-76.8 34.451-76.8 76.8v870.4c0 42.347 34.453 76.8 76.8 76.8h870.4c42.349 0 76.8-34.453 76.8-76.8v-870.4c0-42.349-34.451-76.8-76.8-76.8zM76.8 921.6c-14.115 0-25.6-11.485-25.6-25.6v-870.4c0-14.115 11.485-25.6 25.6-25.6h870.4c14.115 0 25.6 11.485 25.6 25.6v870.4c0 14.115-11.485 25.6-25.6 25.6h-870.4zM665.6 512c-56.464 0-102.4 45.936-102.4 102.4s45.936 102.4 102.4 102.4 102.4-45.936 102.4-102.4-45.936-102.4-102.4-102.4zM665.6 665.6c-28.232 0-51.2-22.968-51.2-51.2s22.968-51.2 51.2-51.2 51.2 22.968 51.2 51.2-22.968 51.2-51.2 51.2zM896 870.4h-768c-14.138 0-25.6-11.462-25.6-25.6v-614.4c0-14.139 11.462-25.6 25.6-25.6h768c14.139 0 25.6 11.461 25.6 25.6v614.4c0 14.138-11.461 25.6-25.6 25.6zM153.6 374.267l164.318 184.858c4.203 4.728 9.694 7.371 15.462 7.44 5.725 0.090 11.322-2.438 15.638-7.062l283.27-303.502h-478.69v118.267zM870.4 256h-168.075l-315.875 338.437c-14.269 15.288-33.312 23.605-53.691 23.325-20.354-0.246-39.214-8.992-53.107-24.621l-126.051-141.808v367.867h716.8v-563.2z" />
<glyph unicode="&#xe612;" glyph-name="time-lapse" d="M947.2 51.2h-460.8c-42.347 0-76.8 34.453-76.8 76.8v153.6c0 14.139 11.462 25.6 25.6 25.6s25.6-11.461 25.6-25.6v-153.6c0-14.115 11.485-25.6 25.6-25.6h460.8c14.115 0 25.6 11.485 25.6 25.6v307.2c0 14.115-11.485 25.6-25.6 25.6h-51.2c-6.789 0-13.301 2.698-18.101 7.499l-43.704 43.701h-194.195c-14.139 0-25.6 11.461-25.6 25.6s11.461 25.6 25.6 25.6h204.8c6.789 0 13.301-2.698 18.101-7.499l43.704-43.701h40.595c42.347 0 76.8-34.453 76.8-76.8v-307.2c0-42.347-34.453-76.8-76.8-76.8zM716.8 153.6c-84.696 0-153.6 68.904-153.6 153.6s68.904 153.6 153.6 153.6 153.6-68.904 153.6-153.6-68.904-153.6-153.6-153.6zM716.8 409.6c-56.464 0-102.4-45.936-102.4-102.4s45.936-102.4 102.4-102.4 102.4 45.936 102.4 102.4-45.936 102.4-102.4 102.4zM532.371 614.789c-11.907 0-22.573 8.352-25.054 20.472-18.528 90.55-89.030 160.941-179.61 179.33-13.856 2.813-22.808 16.325-19.995 30.181s16.317 22.811 30.181 19.995c54.086-10.979 103.422-37.501 142.677-76.696 39.25-39.192 65.845-88.483 76.906-142.546 2.834-13.851-6.098-27.378-19.949-30.213-1.726-0.354-3.454-0.523-5.155-0.523zM30.747 614.397c-1.688 0-3.4 0.166-5.12 0.517-13.856 2.813-22.808 16.325-19.995 30.181 10.994 54.16 37.566 103.549 76.846 142.827 39.278 39.278 88.669 65.853 142.829 76.846 13.862 2.81 27.368-6.141 30.181-19.995 2.813-13.856-6.139-27.368-19.995-30.181-90.736-18.421-161.266-88.95-179.685-179.685-2.464-12.138-13.138-20.51-25.061-20.51zM230.426 312.315c-1.69 0-3.4 0.166-5.12 0.515-54.16 10.995-103.549 37.568-142.827 76.846-39.278 39.282-65.851 88.67-76.845 142.83-2.813 13.854 6.139 27.366 19.995 30.181 13.866 2.813 27.368-6.139 30.181-19.997 18.419-90.734 88.949-161.264 179.683-179.683 13.856-2.814 22.808-16.326 19.995-30.181-2.464-12.136-13.139-20.512-25.062-20.512zM332.773 312.315c-11.925 0-22.597 8.373-25.061 20.512-2.813 13.856 6.139 27.366 19.995 30.181 90.734 18.418 161.264 88.947 179.685 179.683 2.813 13.854 16.322 22.81 30.182 19.995 13.854-2.813 22.808-16.326 19.994-30.182-10.994-54.16-37.566-103.549-76.846-142.829-39.278-39.278-88.667-65.851-142.829-76.845-1.718-0.347-3.432-0.515-5.12-0.515zM281.6 563.2c-6.552 0-13.102 2.499-18.101 7.499l-102.4 102.4c-9.998 9.997-9.998 26.206 0 36.203 9.997 9.998 26.206 9.998 36.203 0l102.4-102.4c9.998-9.997 9.998-26.206 0-36.203-5-5-11.55-7.499-18.102-7.499z" />
<glyph unicode="&#xe613;" glyph-name="bubble-question" d="M25.6 0c-11.507 0-21.6 7.677-24.67 18.766s1.634 22.864 11.501 28.784c86.566 51.941 122.483 127.413 135.216 162.755-94.086 72.048-147.646 171.746-147.646 276.094 0 52.704 13.23 103.755 39.323 151.736 24.902 45.794 60.406 86.806 105.526 121.899 91.504 71.17 212.802 110.365 341.55 110.365s250.046-39.195 341.552-110.366c45.118-35.093 80.624-76.104 105.526-121.899 26.091-47.979 39.322-99.030 39.322-151.734 0-52.702-13.23-103.755-39.322-151.736-24.902-45.794-60.408-86.806-105.526-121.899-91.506-71.17-212.803-110.365-341.552-110.365-52.907 0-104.8 6.627-154.437 19.707-21.974-14.637-63.040-40.605-112.086-65.005-76.163-37.89-141.528-57.102-194.277-57.102zM486.4 819.2c-239.97 0-435.2-149.294-435.2-332.8 0-92.946 51.432-182.379 141.107-245.368 8.797-6.178 12.795-17.194 10.011-27.576-5.984-22.325-26.365-83.598-80.88-142.736 66.664 23.339 138.422 63.83 191.435 100.288 6.298 4.328 14.2 5.619 21.544 3.52 48.558-13.888 99.693-20.928 151.982-20.928 239.97 0 435.2 149.294 435.2 332.8s-195.23 332.8-435.2 332.8zM486.4 358.4c-14.138 0-25.6 11.461-25.6 25.6v102.4c0 14.138 11.462 25.6 25.6 25.6 42.349 0 76.8 34.453 76.8 76.8s-34.451 76.8-76.8 76.8c-42.347 0-76.8-34.453-76.8-76.8 0-14.138-11.462-25.6-25.6-25.6s-25.6 11.462-25.6 25.6c0 70.579 57.421 128 128 128s128-57.421 128-128c0-61.813-44.048-113.534-102.4-125.429v-79.371c0-14.139-11.462-25.6-25.6-25.6zM486.4 256c-6.736 0-13.344 2.736-18.096 7.504-4.768 4.752-7.504 11.36-7.504 18.096 0 6.752 2.736 13.344 7.504 18.098 4.752 4.766 11.36 7.502 18.096 7.502s13.344-2.736 18.096-7.502c4.768-4.754 7.504-11.362 7.504-18.098s-2.736-13.328-7.504-18.096c-4.752-4.768-11.36-7.504-18.096-7.504z" />
<glyph unicode="&#xe614;" glyph-name="eraser" d="M1009.411 618.853c-1.317 7.912-3.949 15.614-7.917 22.846-5.862 10.678-14.136 19.464-24.146 25.901-0.083 0.056-0.17 0.107-0.253 0.163-0.536 0.342-1.074 0.685-1.621 1.014-4.899 3.040-10.494 5.547-16.731 7.421-1.253 0.381-2.522 0.734-3.806 1.056l-310.258 77.565c-8.272 2.067-17.4 3.117-27.13 3.117-30.661 0-63.979-10.504-84.883-26.76l-379.97-295.534c-26.094-20.296-54.722-60.76-65.174-92.118l-70.019-210.056c-6.587-19.763-4.811-40.49 5-58.366 9.813-17.875 26.347-30.501 46.557-35.555l310.259-77.566c8.27-2.067 17.4-3.115 27.13-3.115 24.293 0 50.227 6.61 70.357 17.434 4.678 2.33 9.506 5.424 14.525 9.328l379.97 295.531c26.094 20.298 54.722 60.76 65.174 92.118l70.019 210.056c4.694 14.082 5.659 25.811 2.917 35.522zM617.55 706.734c5.47 0 10.558-0.549 14.712-1.589l308.906-77.226-378.869-294.678c-12.096-9.408-34.074-15.978-53.448-15.976-5.47 0-10.558 0.549-14.712 1.587l-308.909 77.229 378.87 294.677c12.094 9.406 34.074 15.976 53.45 15.976zM67.389 99.741c-2.872 5.23-3.338 11.458-1.312 17.536l70.019 210.058c4.712 14.138 20.901 23.034 35.365 19.414 0 0 0 0 0.002 0l310.259-77.566c6.216-1.554 11.221-5.291 14.093-10.52 2.87-5.232 3.336-11.459 1.31-17.538l-70.021-210.058c-4.714-14.138-20.917-23.030-35.366-19.414l-52.73 13.182c-0.002 0-0.005 0.002-0.008 0.002l-257.52 64.382c-6.216 1.552-11.221 5.29-14.091 10.522zM839.867 321.573l-353.642-275.054 59.47 178.414c7.32 21.958 29.766 53.685 48.037 67.894l353.643 275.056-59.472-178.416c-7.318-21.957-29.766-53.683-48.037-67.894z" />
<glyph unicode="&#xe615;" glyph-name="file-add" d="M914.101 683.701l-230.4 230.4c-4.8 4.802-11.312 7.499-18.101 7.499h-486.4c-42.347 0-76.8-34.453-76.8-76.8v-819.2c0-42.349 34.453-76.8 76.8-76.8h665.6c42.349 0 76.8 34.451 76.8 76.8v640c0 6.79-2.698 13.301-7.499 18.101zM859.797 665.6h-168.597c-14.115 0-25.6 11.485-25.6 25.6v168.597l194.197-194.197zM844.8 0h-665.6c-14.115 0-25.6 11.485-25.6 25.6v819.2c0 14.115 11.485 25.6 25.6 25.6h435.2v-179.2c0-42.347 34.451-76.8 76.8-76.8h179.2v-588.8c0-14.115-11.485-25.6-25.6-25.6zM588.8 307.2h-128v128c0 14.139-11.462 25.6-25.6 25.6s-25.6-11.461-25.6-25.6v-128h-128c-14.138 0-25.6-11.461-25.6-25.6s11.462-25.6 25.6-25.6h128v-128c0-14.139 11.462-25.6 25.6-25.6s25.6 11.461 25.6 25.6v128h128c14.139 0 25.6 11.461 25.6 25.6s-11.461 25.6-25.6 25.6z" />
<glyph unicode="&#xe616;" glyph-name="grid" d="M844.8 870.4h-665.6c-42.347 0-76.8-34.453-76.8-76.8v-665.6c0-42.349 34.453-76.8 76.8-76.8h665.6c42.349 0 76.8 34.451 76.8 76.8v665.6c0 42.347-34.451 76.8-76.8 76.8zM870.4 793.6v-179.2h-204.8v204.8h179.2c14.115 0 25.6-11.485 25.6-25.6zM409.6 358.4v204.8h204.8v-204.8h-204.8zM614.4 307.2v-204.8h-204.8v204.8h204.8zM358.4 358.4h-204.8v204.8h204.8v-204.8zM409.6 614.4v204.8h204.8v-204.8h-204.8zM665.6 563.2h204.8v-204.8h-204.8v204.8zM179.2 819.2h179.2v-204.8h-204.8v179.2c0 14.115 11.485 25.6 25.6 25.6zM153.6 128v179.2h204.8v-204.8h-179.2c-14.115 0-25.6 11.485-25.6 25.6zM844.8 102.4h-179.2v204.8h204.8v-179.2c0-14.115-11.485-25.6-25.6-25.6z" />
<glyph unicode="&#xe617;" glyph-name="select" d="M281.6 204.8h-204.8c-42.347 0-76.8 34.451-76.8 76.8v614.4c0 42.347 34.453 76.8 76.8 76.8h716.8c42.349 0 76.8-34.453 76.8-76.8v-358.4c0-14.138-11.461-25.6-25.6-25.6s-25.6 11.462-25.6 25.6v358.4c0 14.115-11.485 25.6-25.6 25.6h-716.8c-14.115 0-25.6-11.485-25.6-25.6v-614.4c0-14.115 11.485-25.6 25.6-25.6h204.8c14.138 0 25.6-11.461 25.6-25.6s-11.462-25.6-25.6-25.6zM665.608-51.206c-10.16 0-19.773 6.090-23.776 16.099l-86.882 217.203-151.685-173.354c-7.022-8.027-18.285-10.859-28.269-7.106-9.986 3.75-16.597 13.298-16.597 23.963v768c0 10.133 5.976 19.312 15.243 23.411 9.266 4.101 20.078 2.347 27.576-4.469l563.2-512c7.827-7.114 10.472-18.309 6.658-28.173s-13.301-16.37-23.877-16.37h-218.187l88.357-220.893c5.251-13.128-1.134-28.027-14.261-33.277l-128-51.2c-3.118-1.246-6.338-1.837-9.501-1.837zM563.198 256c1.432 0 2.874-0.12 4.31-0.366 8.781-1.501 16.152-7.456 19.459-15.726l92.893-232.232 80.462 32.184-92.893 232.232c-3.155 7.888-2.192 16.826 2.57 23.859s12.704 11.25 21.2 11.25h189.782l-471.382 428.53v-641.997l134.334 153.525c4.904 5.606 11.954 8.742 19.264 8.742z" />
<glyph unicode="&#xe618;" glyph-name="arrow-down" d="M1024 608l-64 64-448-448-448 448-64-64 511.998-512 512.002 512z" />
<glyph unicode="&#xe619;" glyph-name="envelope" d="M896 665.6h-819.2c-42.347 0-76.8-34.453-76.8-76.8v-460.8c0-42.349 34.453-76.8 76.8-76.8h819.2c42.349 0 76.8 34.451 76.8 76.8v460.8c0 42.347-34.451 76.8-76.8 76.8zM896 614.4c1.514 0 2.99-0.158 4.434-0.411l-385.632-257.090c-14.862-9.907-41.938-9.907-56.802 0l-385.634 257.090c1.443 0.253 2.92 0.411 4.434 0.411h819.2zM896 102.4h-819.2c-14.115 0-25.6 11.485-25.6 25.6v438.566l378.4-252.267c15.925-10.618 36.363-15.925 56.8-15.925s40.877 5.307 56.802 15.925l378.398 252.267v-438.566c0-14.115-11.485-25.6-25.6-25.6z" />
<glyph unicode="&#xe61a;" glyph-name="paper-plane" d="M1015.456 915.091c-7.371 6.587-17.877 8.341-26.99 4.502l-972.8-409.6c-9.822-4.136-16.056-13.925-15.646-24.576s7.374-19.933 17.486-23.302l289.694-96.566v-288.749c0-10.835 6.822-20.499 17.034-24.125 2.805-0.995 5.698-1.477 8.562-1.477 7.562 0 14.917 3.358 19.874 9.458l141.472 174.12 230.27-227.392c4.851-4.79 11.339-7.384 17.989-7.384 2.133 0 4.283 0.267 6.402 0.814 8.72 2.253 15.616 8.922 18.157 17.563l256 870.4c2.792 9.483-0.13 19.726-7.502 26.314zM825.862 795.576l-497.882-382.986-229.79 76.597 727.672 306.389zM358.4 371.395l482.062 370.816-368.346-453.347c-0.011-0.013-0.022-0.027-0.034-0.040l-113.683-139.92v222.491zM729.922 73.901l-203.342 200.8 411.28 506.192-207.938-706.992z" />
<glyph unicode="&#xe61b;" glyph-name="marker" d="M1006.476 748.738c-21.974 53.048-63.706 106.424-114.494 146.444-53.044 41.798-109.856 64.818-159.966 64.818-38.876 0-72.2-13.61-99.042-40.452l-458.97-458.964c-4.644-4.642-8.214-10.246-10.462-16.414l-160.822-425.22c-5.988-16.438-1.91-34.856 10.46-47.224l22.54-22.542c8.592-8.592 20.096-13.184 31.83-13.184 5.164 0 10.374 0.89 15.398 2.72l425.23 160.82c6.168 2.248 11.772 5.818 16.416 10.46l458.97 458.964c44.4 44.404 52.54 108.246 22.912 179.774zM479.656 192.344l-223.306 223.306 384.004 383.996 223.304-223.304-384.002-383.998z" />
<glyph unicode="&#xe61c;" glyph-name="menu-square" d="M896-51.2h-819.2c-42.347 0-76.8 34.451-76.8 76.8v819.2c0 42.347 34.453 76.8 76.8 76.8h819.2c42.349 0 76.8-34.453 76.8-76.8v-819.2c0-42.349-34.451-76.8-76.8-76.8zM76.8 870.4c-14.115 0-25.6-11.485-25.6-25.6v-819.2c0-14.115 11.485-25.6 25.6-25.6h819.2c14.115 0 25.6 11.485 25.6 25.6v819.2c0 14.115-11.485 25.6-25.6 25.6h-819.2zM742.4 563.2h-512c-14.138 0-25.6 11.462-25.6 25.6s11.462 25.6 25.6 25.6h512c14.139 0 25.6-11.462 25.6-25.6s-11.461-25.6-25.6-25.6zM742.4 256h-512c-14.138 0-25.6 11.461-25.6 25.6s11.462 25.6 25.6 25.6h512c14.139 0 25.6-11.461 25.6-25.6s-11.461-25.6-25.6-25.6zM742.4 409.6h-512c-14.138 0-25.6 11.461-25.6 25.6s11.462 25.6 25.6 25.6h512c14.139 0 25.6-11.461 25.6-25.6s-11.461-25.6-25.6-25.6z" />
<glyph unicode="&#xe61d;" glyph-name="linkedin" d="M384 576h177.106v-90.782h2.532c24.64 44.194 84.958 90.782 174.842 90.782 186.946 0 221.52-116.376 221.52-267.734v-308.266h-184.61v273.278c0 65.184-1.334 149.026-96.028 149.026-96.148 0-110.82-70.986-110.82-144.292v-278.012h-184.542v576zM64 576h192v-576h-192v576zM256 736c0-53.019-42.981-96-96-96s-96 42.981-96 96c0 53.019 42.981 96 96 96s96-42.981 96-96z" />
<glyph unicode="&#xe61e;" glyph-name="twitter" d="M1024 765.582c-37.676-16.708-78.164-28.002-120.66-33.080 43.372 26 76.686 67.17 92.372 116.23-40.596-24.078-85.556-41.56-133.41-50.98-38.32 40.83-92.922 66.34-153.346 66.34-116.022 0-210.088-94.058-210.088-210.078 0-16.466 1.858-32.5 5.44-47.878-174.6 8.764-329.402 92.4-433.018 219.506-18.084-31.028-28.446-67.116-28.446-105.618 0-72.888 37.088-137.192 93.46-174.866-34.438 1.092-66.832 10.542-95.154 26.278-0.020-0.876-0.020-1.756-0.020-2.642 0-101.788 72.418-186.696 168.522-206-17.626-4.8-36.188-7.372-55.348-7.372-13.538 0-26.698 1.32-39.528 3.772 26.736-83.46 104.32-144.206 196.252-145.896-71.9-56.35-162.486-89.934-260.916-89.934-16.958 0-33.68 0.994-50.116 2.94 92.972-59.61 203.402-94.394 322.042-94.394 386.422 0 597.736 320.124 597.736 597.744 0 9.108-0.206 18.168-0.61 27.18 41.056 29.62 76.672 66.62 104.836 108.748z" />
<glyph unicode="&#xe61f;" glyph-name="slack" horiz-adv-x="951" d="M868 507.428q35.429 0 59.143-23.143t23.714-58q0-55.429-53.143-74.286l-98.286-33.714 32-95.429q4-12 4-26.857 0-33.714-24-58.286t-57.714-24.571q-26.857 0-48.857 15.429t-30.571 41.143l-31.429 94.286-177.143-60.571 31.429-93.714q4.571-13.714 4.571-26.857 0-33.714-24-58.286t-58.286-24.571q-26.857 0-48.571 15.429t-30.286 41.143l-31.429 93.143-87.429-30.286q-16.571-5.143-28.571-5.143-34.857 0-58 22.857t-23.143 57.714q0 26.857 15.714 48.571t40.857 30.286l89.143 30.286-60 178.857-89.143-30.857q-14.857-4.571-27.429-4.571-34.286 0-57.714 23.143t-23.429 57.429q0 26.857 15.714 48.571t40.857 30.286l89.714 30.286-30.286 90.857q-4.571 13.714-4.571 26.857 0 34.286 24 58.571t58.286 24.286q26.857 0 48.571-15.429t30.286-41.143l30.857-91.429 177.143 60-30.857 91.429q-4.571 13.714-4.571 26.857 0 33.714 24.286 58.286t58 24.571q26.857 0 48.857-15.714t30.571-40.857l30.286-92 92.571 31.429q12 3.429 24.571 3.429 34.286 0 58.571-22.571t24.286-56.286q0-25.714-17.143-46.571t-42.286-29.429l-89.714-30.857 60-180.571 93.714 32q13.714 4.571 26.286 4.571zM414.286 357.714l177.143 60-60 180-177.143-61.143z" />
<glyph unicode="&#xe620;" glyph-name="arrow-up" d="M0 288l64-64 448 448 448-448 64 64-511.998 512-512.002-512z" />
<glyph unicode="&#xe621;" glyph-name="circle" d="M0 448c0 282.77 229.23 512 512 512s512-229.23 512-512c0-282.77-229.23-512-512-512s-512 229.23-512 512z" />
<glyph unicode="&#xe622;" glyph-name="undo" d="M553.011 624.64h-81.818v132.096c0 28.774-23.040 52.224-51.354 52.224-10.854 0-21.35-3.482-30.259-10.189l-368.589-275.507c-13.312-9.984-20.992-25.293-20.992-41.984s7.68-32 20.992-41.984l368.538-275.456c8.96-6.758 19.405-10.24 30.259-10.24 28.314 0 51.354 23.45 51.354 52.224v132.096h144.333c152.883 0 243.149-56.525 311.45-194.97l1.434-2.867c9.114-16.896 26.214-27.443 44.749-27.443h0.051c28.16 0.051 50.33 22.016 50.739 50.893 0.102 275.814-189.082 461.107-470.886 461.107zM973.261 153.6v0c-1.69 0-5.837 0.563-9.523 7.322-75.315 152.781-179.456 217.958-348.211 217.958h-164.864c-11.315 0-20.48-9.165-20.48-20.429v-152.627c0-7.68-6.093-11.264-10.394-11.264-1.997 0-3.942 0.717-5.734 2.048l-368.538 275.456c-3.994 3.021-4.608 7.066-4.608 9.216s0.614 6.195 4.608 9.216l368.538 275.456c1.843 1.382 3.738 2.048 5.734 2.048 4.301 0 10.394-3.482 10.394-11.264v-152.576c0-11.315 9.165-20.48 20.48-20.48h102.349c261.325 0 430.131-164.915 430.131-420.454-0.102-7.936-7.168-9.626-9.882-9.626z" />
<glyph unicode="&#xe623;" glyph-name="note" d="M1014.63 651.315l-288 288c-5.99 5.99-14.131 9.37-22.63 9.37h-608c-52.941 0-96-43.059-96-96v-783.821c0-52.941 43.059-96 96-96h832c52.941 0 96 43.059 96 96v559.821c0 8.499-3.379 16.64-9.37 22.63zM704 871.475l242.739-242.739h-210.739c-17.664 0-32 14.387-32 32v210.739zM960 68.915c0-17.664-14.336-32-32-32h-832c-17.664 0-32 14.336-32 32v783.77c0 17.664 14.336 32 32 32h544v-224c0-52.941 43.059-96 96-96h224v-495.77zM672.512 431.821h-160v160c0 17.664-14.336 32-32 32s-32-14.336-32-32v-160h-160c-17.664 0-32-14.336-32-32s14.336-32 32-32h160v-160c0-17.715 14.336-32 32-32s32 14.285 32 32v160h160c17.664 0 32 14.336 32 32 0 17.613-14.336 32-32 32z" />
<glyph unicode="&#xe624;" glyph-name="minus" d="M967.168 517.683h-910.285c-31.334 0-56.883-25.446-56.883-56.832s25.549-56.934 56.883-56.934h910.285c31.386 0 56.832 25.549 56.832 56.934s-25.446 56.832-56.832 56.832z" />
<glyph unicode="&#xe625;" glyph-name="plus" d="M967.066 517.632h-398.080v398.285c-0.051 31.386-25.549 56.883-56.986 56.883s-56.883-25.498-56.883-56.883v-398.285h-398.234c-31.386 0-56.883-25.446-56.883-56.832s25.498-56.832 56.883-56.832h398.182v-398.285c0.051-31.437 25.498-56.883 56.934-56.883s56.934 25.446 56.934 56.832v398.336h398.080c31.539 0 56.986 25.446 56.986 56.832s-25.446 56.832-56.934 56.832z" />
<glyph unicode="&#xe626;" glyph-name="pen" d="M1002.101 950.902c-14.312 14.314-33.55 21.57-57.178 21.57-38.552 0-90.39-20.173-154.691-60.096-20.602 21.781-59.752 55.149-109.102 59.157-39.395 3.197-76.557-12.355-110.432-46.23-71.957-71.957-107.366-159.792-130.798-217.914-7.962-19.75-17.87-44.333-22.802-49.395-1.678-1.678-6.768-6.766-15.546 0.642-10.034 9.461-25.837 9.282-35.654-0.533-9.998-9.998-9.998-26.206 0-36.203 4.194-4.195 14.976-12.326 28.786-16.2 5.552-1.558 11.064-2.328 16.469-2.328 6.491 0 12.826 1.125 18.893 3.314-7.027-7.202-14.042-14.453-21.035-21.757-180.053-188.078-381.962-446.123-408.661-606.318-1.36-8.157 1.304-16.466 7.149-22.31 4.84-4.842 11.37-7.499 18.102-7.499 1.398 0 2.806 0.114 4.21 0.349 66.966 11.162 155.259 53.531 262.421 125.934 94.797 64.046 199.966 148.87 304.139 245.298 101.602 94.045 194.278 191.611 268.010 282.152 55.093 67.65 125.874 164.242 150.224 240.221 15.402 48.064 11.195 84.451-12.502 108.149zM606.901 889.099c23.026 23.026 45.891 33.309 69.89 31.418 28.702-2.251 53.931-21.411 69.893-36.875-12.624-8.782-25.642-18.197-39.067-28.269-72.926-54.71-155.656-127.411-238.080-208.931 5.494 11.168 11.082 25.010 17.853 41.803 21.877 54.267 54.936 136.277 119.512 200.854zM155.434 192.363l88.171-88.171c-69.91-45.646-132.29-78.139-182.782-94.581 16.483 50.515 49.075 112.971 94.611 182.752zM561.589 357.954c-96.040-88.899-189.934-165.266-274.792-224.547l-102.163 102.165c67.64 96.896 157.245 205.195 261.362 313.95 120.925 126.312 240.387 230.635 335.994 296.29l114.899-114.902c-73.266-106.797-193.818-241.995-335.299-372.955zM965.843 858.378c-7.579-23.651-21.382-51.859-40.506-83.512l-99.403 99.403c50.074 30.282 91.147 47.003 118.989 47.003 14.4 0 19.349-4.949 20.974-6.574 11.858-11.856 5.056-40.376-0.054-56.32z" />
<glyph unicode="&#xe627;" glyph-name="color-sampler" d="M691.2 512c-42.349 0-76.8 34.453-76.8 76.8s34.451 76.8 76.8 76.8 76.8-34.453 76.8-76.8-34.451-76.8-76.8-76.8zM691.2 614.4c-14.115 0-25.6-11.485-25.6-25.6s11.485-25.6 25.6-25.6 25.6 11.485 25.6 25.6-11.485 25.6-25.6 25.6zM358.4 21.27c-20.554 0-39.84 7.966-54.304 22.43l-260.395 260.395c-14.466 14.464-22.432 33.75-22.432 54.304s7.966 39.84 22.434 54.306l490.794 490.792c14.464 14.466 33.75 22.432 54.304 22.432s39.84-7.966 54.304-22.432l260.394-260.392c29.944-29.944 29.944-78.667 0.002-108.611l-490.794-490.794c-14.466-14.466-33.752-22.43-54.306-22.43zM588.8 874.73c-6.878 0-13.306-2.64-18.101-7.435l-490.794-490.794c-4.795-4.795-7.435-11.224-7.435-18.101s2.64-13.306 7.435-18.099l260.394-260.397c4.795-4.794 11.224-7.434 18.101-7.434s13.307 2.64 18.102 7.435l490.794 490.792c9.979 9.982 9.979 26.224 0 36.205l-260.395 260.392c-4.795 4.795-11.222 7.435-18.101 7.435zM574.595-50.214c-15.034 0-29.726 4.552-42.49 13.325l-60.21 41.394c-11.651 8.010-14.602 23.949-6.592 35.598 8.010 11.651 23.947 14.605 35.598 6.592l60.21-41.394c5.456-3.75 11.971-5.102 18.325-3.822 6.363 1.288 11.832 5.067 15.4 10.645l279.6 436.875c7.622 11.909 23.458 15.379 35.363 7.763 11.907-7.622 15.382-23.453 7.763-35.363l-279.6-436.875c-11.114-17.366-28.293-29.166-48.371-33.229-4.998-1.008-10.018-1.509-14.997-1.509zM790.802-14.426c-6.112 0-12.202 0.973-18.098 2.939l-38.4 12.8c-13.413 4.47-20.662 18.966-16.19 32.381 4.47 13.411 18.966 20.664 32.381 16.19l38.4-12.8c0.699-0.234 2.826-0.939 6.466 1.011 4.357 2.331 9.957 8.293 12.613 18.034l63.328 232.205c3.72 13.64 17.794 21.675 31.434 17.963 13.64-3.72 21.683-17.794 17.963-31.434l-63.328-232.205c-5.976-21.912-19.773-40.030-37.85-49.704-9.152-4.898-18.962-7.381-28.718-7.381z" />
<glyph unicode="&#xe628;" glyph-name="pencil5" d="M978.099 926.902c-28.768 28.768-67.016 44.611-107.699 44.611-40.685 0-78.933-15.843-107.699-44.611l-499.2-499.2c-2.645-2.645-4.678-5.837-5.957-9.357l-102.4-281.6c-3.4-9.347-1.077-19.818 5.957-26.848 4.885-4.89 11.43-7.501 18.104-7.501 2.933 0 5.891 0.501 8.744 1.541l281.6 102.4c3.515 1.28 6.709 3.312 9.354 5.96l499.2 499.2c28.766 28.768 44.614 67.018 44.614 107.702-0.003 40.686-15.846 78.934-44.618 107.702zM446.714 252.517l-224.709-81.71 81.712 224.706 413.083 413.085 142.997-142.997-413.083-413.083zM941.901 747.702l-45.901-45.899-142.997 142.997 45.901 45.899c19.096 19.098 44.488 29.614 71.496 29.614s52.4-10.518 71.501-29.616c19.096-19.098 29.614-44.49 29.614-71.498s-10.52-52.4-29.614-71.498zM896-51.2h-819.2c-42.347 0-76.8 34.451-76.8 76.8v819.2c0 42.347 34.453 76.8 76.8 76.8h512c14.139 0 25.6-11.462 25.6-25.6s-11.461-25.6-25.6-25.6h-512c-14.115 0-25.6-11.485-25.6-25.6v-819.2c0-14.115 11.485-25.6 25.6-25.6h819.2c14.115 0 25.6 11.485 25.6 25.6v512c0 14.138 11.461 25.6 25.6 25.6s25.6-11.462 25.6-25.6v-512c0-42.349-34.451-76.8-76.8-76.8z" />
<glyph unicode="&#xe629;" glyph-name="stamp" d="M896-51.2h-819.2c-14.138 0-25.6 11.461-25.6 25.6s11.462 25.6 25.6 25.6h819.2c14.139 0 25.6-11.461 25.6-25.6s-11.461-25.6-25.6-25.6zM896 256h-230.4c-27.754 0-51.2 35.17-51.2 76.8v257.893c61.166 35.464 102.4 101.659 102.4 177.307 0 112.928-91.874 204.8-204.8 204.8-112.928 0-204.8-91.872-204.8-204.8 0-75.65 41.232-141.845 102.4-177.307v-257.893c0-41.63-23.446-76.8-51.2-76.8h-281.6c-42.347 0-76.8-34.451-76.8-76.8v-51.2c0-42.349 34.453-76.8 76.8-76.8h819.2c42.349 0 76.8 34.451 76.8 76.8v51.2c0 42.349-34.451 76.8-76.8 76.8zM358.4 768c0 84.696 68.904 153.6 153.6 153.6s153.6-68.904 153.6-153.6-68.904-153.6-153.6-153.6-153.6 68.904-153.6 153.6zM460.8 332.8v236.88c16.37-4.229 33.528-6.48 51.2-6.48 17.674 0 34.83 2.251 51.2 6.48v-236.88c0-28.794 7.65-55.392 20.536-76.8h-143.472c12.886 21.408 20.536 48.006 20.536 76.8zM921.6 128c0-14.115-11.485-25.6-25.6-25.6h-819.2c-14.115 0-25.6 11.485-25.6 25.6v51.2c0 14.115 11.485 25.6 25.6 25.6h819.2c14.115 0 25.6-11.485 25.6-25.6v-51.2zM435.2 767.994c-2.832 0-5.709 0.474-8.531 1.47-13.331 4.712-20.317 19.338-15.605 32.667 10.27 29.059 37.741 56.53 66.803 66.805 13.334 4.714 27.957-2.274 32.669-15.602 4.712-13.331-2.272-27.957-15.602-32.669-14.502-5.128-30.472-21.096-35.597-35.595-3.715-10.51-13.592-17.077-24.138-17.077z" />
<glyph unicode="&#xe62b;" glyph-name="magic-wand" d="M588.8 614.4c-14.139 0-25.6 11.462-25.6 25.6 0 70.579-57.421 128-128 128-14.138 0-25.6 11.462-25.6 25.6s11.462 25.6 25.6 25.6c70.579 0 128 57.421 128 128 0 14.138 11.461 25.6 25.6 25.6s25.6-11.462 25.6-25.6c0-70.579 57.421-128 128-128 14.139 0 25.6-11.462 25.6-25.6s-11.461-25.6-25.6-25.6c-70.579 0-128-57.421-128-128 0-14.138-11.461-25.6-25.6-25.6zM527.426 793.6c25.11-15.136 46.238-36.264 61.374-61.376 15.136 25.112 36.264 46.24 61.376 61.376-25.112 15.136-46.24 36.264-61.376 61.376-15.136-25.112-36.264-46.24-61.374-61.376zM76.8 460.8c-14.138 0-25.6 11.462-25.6 25.6 0 14.115-11.485 25.6-25.6 25.6-14.138 0-25.6 11.462-25.6 25.6s11.462 25.6 25.6 25.6c14.115 0 25.6 11.485 25.6 25.6 0 14.138 11.462 25.6 25.6 25.6s25.6-11.462 25.6-25.6c0-14.115 11.485-25.6 25.6-25.6 14.138 0 25.6-11.462 25.6-25.6s-11.462-25.6-25.6-25.6c-14.115 0-25.6-11.485-25.6-25.6 0-14.138-11.462-25.6-25.6-25.6zM929.101 156.704l-541.995 541.994c-14.466 14.466-33.752 22.432-54.306 22.432s-39.84-7.966-54.306-22.432l-29.992-29.992c-14.466-14.466-22.432-33.752-22.432-54.306s7.966-39.84 22.432-54.306l541.994-541.992c14.464-14.466 33.75-22.434 54.304-22.434s39.84 7.965 54.306 22.434l29.994 29.992c14.466 14.464 22.432 33.752 22.432 54.304s-7.965 39.842-22.43 54.306zM284.706 632.502l29.992 29.992c4.795 4.795 11.224 7.435 18.102 7.435s13.307-2.64 18.102-7.435l73.691-73.693-66.197-66.197-73.691 73.691c-9.982 9.984-9.982 26.224 0 36.206zM892.894 84.298l-29.994-29.992c-4.794-4.794-11.224-7.434-18.099-7.434s-13.306 2.64-18.099 7.434l-432.102 432.099 66.197 66.195 432.098-432.099c9.981-9.981 9.981-26.222 0-36.203zM179.2 716.8c-14.138 0-25.6 11.462-25.6 25.6 0 42.347-34.453 76.8-76.8 76.8-14.138 0-25.6 11.462-25.6 25.6s11.462 25.6 25.6 25.6c42.347 0 76.8 34.453 76.8 76.8 0 14.138 11.462 25.6 25.6 25.6s25.6-11.462 25.6-25.6c0-42.347 34.453-76.8 76.8-76.8 14.138 0 25.6-11.462 25.6-25.6s-11.462-25.6-25.6-25.6c-42.347 0-76.8-34.453-76.8-76.8 0-14.138-11.462-25.6-25.6-25.6zM153.52 844.8c9.725-7.304 18.376-15.957 25.68-25.68 7.304 9.725 15.957 18.376 25.68 25.68-9.725 7.304-18.376 15.957-25.68 25.68-7.304-9.723-15.957-18.376-25.68-25.68zM179.2 204.8c-14.138 0-25.6 11.461-25.6 25.6 0 42.347-34.453 76.8-76.8 76.8-14.138 0-25.6 11.461-25.6 25.6s11.462 25.6 25.6 25.6c42.347 0 76.8 34.453 76.8 76.8 0 14.139 11.462 25.6 25.6 25.6s25.6-11.461 25.6-25.6c0-42.347 34.453-76.8 76.8-76.8 14.138 0 25.6-11.461 25.6-25.6s-11.462-25.6-25.6-25.6c-42.347 0-76.8-34.453-76.8-76.8 0-14.139-11.462-25.6-25.6-25.6zM153.52 332.8c9.725-7.302 18.376-15.957 25.68-25.68 7.304 9.723 15.957 18.374 25.68 25.68-9.725 7.302-18.376 15.957-25.68 25.68-7.304-9.723-15.957-18.378-25.68-25.68z" />
<glyph unicode="&#xe66b;" glyph-name="lock2" d="M742.4 563.2h-25.6v76.8c0 127.043-103.357 230.4-230.4 230.4s-230.4-103.357-230.4-230.4v-76.8h-25.6c-42.347 0-76.8-34.453-76.8-76.8v-409.6c0-42.347 34.453-76.8 76.8-76.8h512c42.347 0 76.8 34.453 76.8 76.8v409.6c0 42.347-34.453 76.8-76.8 76.8zM307.2 640c0 98.811 80.389 179.2 179.2 179.2s179.2-80.389 179.2-179.2v-76.8h-358.4v76.8zM768 76.8c0-14.115-11.485-25.6-25.6-25.6h-512c-14.115 0-25.6 11.485-25.6 25.6v409.6c0 14.115 11.485 25.6 25.6 25.6h512c14.115 0 25.6-11.485 25.6-25.6v-409.6z" />
<glyph unicode="&#xe681;" glyph-name="trash2" d="M793.6 870.4h-179.2v25.6c0 42.347-34.453 76.8-76.8 76.8h-102.4c-42.347 0-76.8-34.453-76.8-76.8v-25.6h-179.2c-42.347 0-76.8-34.453-76.8-76.8v-51.2c0-33.373 21.403-61.829 51.2-72.397v-644.403c0-42.349 34.453-76.8 76.8-76.8h512c42.349 0 76.8 34.451 76.8 76.8v644.403c29.797 10.568 51.2 39.024 51.2 72.397v51.2c0 42.347-34.451 76.8-76.8 76.8zM409.6 896c0 14.115 11.485 25.6 25.6 25.6h102.4c14.115 0 25.6-11.485 25.6-25.6v-25.6h-153.6v25.6zM742.4 0h-512c-14.115 0-25.6 11.485-25.6 25.6v640h563.2v-640c0-14.115-11.485-25.6-25.6-25.6zM819.2 742.4c0-14.115-11.485-25.6-25.6-25.6h-614.4c-14.115 0-25.6 11.485-25.6 25.6v51.2c0 14.115 11.485 25.6 25.6 25.6h614.4c14.115 0 25.6-11.485 25.6-25.6v-51.2zM640 614.4c-14.139 0-25.6-11.462-25.6-25.6v-512c0-14.139 11.461-25.6 25.6-25.6s25.6 11.461 25.6 25.6v512c0 14.138-11.461 25.6-25.6 25.6zM486.4 614.4c-14.138 0-25.6-11.462-25.6-25.6v-512c0-14.139 11.462-25.6 25.6-25.6s25.6 11.461 25.6 25.6v512c0 14.138-11.462 25.6-25.6 25.6zM332.8 614.4c-14.138 0-25.6-11.462-25.6-25.6v-512c0-14.139 11.462-25.6 25.6-25.6s25.6 11.461 25.6 25.6v512c0 14.138-11.462 25.6-25.6 25.6z" />
<glyph unicode="&#xe684;" glyph-name="game" d="M486.4-51.2c-129.922 0-252.067 50.594-343.936 142.464s-142.464 214.014-142.464 343.936c0 129.923 50.595 252.067 142.464 343.936s214.013 142.464 343.936 142.464c90.926 0 179.611-25.254 256.466-73.034 74.717-46.45 135.534-112.258 175.882-190.309 3.118-6.035 3.71-13.062 1.646-19.534s-6.616-11.858-12.653-14.971l-365.502-188.552 365.501-188.55c6.037-3.114 10.589-8.501 12.653-14.973s1.472-13.499-1.646-19.533c-40.346-78.051-101.163-143.859-175.88-190.31-76.854-47.779-165.539-73.034-256.466-73.034zM486.4 870.4c-239.97 0-435.2-195.23-435.2-435.2s195.23-435.2 435.2-435.2c154.907 0 296.128 81.075 374.44 213.234l-386.176 199.214c-8.515 4.392-13.864 13.173-13.864 22.752s5.349 18.36 13.864 22.752l386.178 199.216c-78.314 132.157-219.534 213.232-374.442 213.232zM588.8 614.4c-42.349 0-76.8 34.453-76.8 76.8s34.451 76.8 76.8 76.8 76.8-34.453 76.8-76.8-34.451-76.8-76.8-76.8zM588.8 716.8c-14.115 0-25.6-11.485-25.6-25.6s11.485-25.6 25.6-25.6 25.6 11.485 25.6 25.6-11.485 25.6-25.6 25.6z" />
<glyph unicode="&#xe686;" glyph-name="joystick" d="M665.6 793.6c0 98.811-80.389 179.2-179.2 179.2s-179.2-80.389-179.2-179.2c0-90.12 66.874-164.902 153.6-177.363v-232.237c0-14.139 11.462-25.6 25.6-25.6s25.6 11.461 25.6 25.6v232.237c86.726 12.461 153.6 87.243 153.6 177.363zM486.4 665.6c-70.579 0-128 57.421-128 128s57.421 128 128 128 128-57.421 128-128-57.421-128-128-128zM460.8 844.8c0-14.138-11.462-25.6-25.6-25.6s-25.6 11.462-25.6 25.6c0 14.138 11.462 25.6 25.6 25.6s25.6-11.462 25.6-25.6zM486.4 256c-32.854 0-64.026 9.806-87.768 27.614-25.568 19.176-40.232 46.434-40.232 74.786 0 26.635 12.515 51.789 35.242 70.829 10.837 9.080 26.982 7.656 36.064-3.182 9.080-10.838 7.654-26.984-3.184-36.064-7.72-6.469-16.922-17.197-16.922-31.582 0-27.754 35.17-51.2 76.8-51.2s76.8 23.446 76.8 51.2c0 14.384-9.203 25.114-16.922 31.581-10.837 9.082-12.262 25.227-3.182 36.064s25.226 12.262 36.064 3.182c22.725-19.040 35.24-44.194 35.24-70.827 0-28.352-14.664-55.61-40.232-74.786-23.742-17.808-54.914-27.614-87.768-27.614zM912.853 404.194l-312.605 156.304c-12.645 6.322-28.024 1.195-34.346-11.45s-1.198-28.022 11.448-34.346l312.606-156.302c4.387-2.194 8.666-5.526 12.592-9.573l-383.718-212.058c-16.97-9.379-47.886-9.379-64.859 0l-383.72 212.058c3.926 4.046 8.205 7.379 12.592 9.573l312.605 156.302c12.646 6.323 17.771 21.701 11.448 34.346-6.323 12.646-21.702 17.768-34.346 11.45l-312.606-156.304c-33.613-16.808-59.944-59.413-59.944-96.994v-25.6c0-37.571 24.474-80.179 56.926-99.11l372.349-217.203c16.016-9.344 36.571-14.014 57.125-14.014s41.107 4.67 57.123 14.014l372.352 217.203c32.451 18.931 56.925 61.539 56.925 99.11v25.6c0 37.581-26.331 80.187-59.947 96.994zM890.077 226.714l-372.352-217.203c-16.394-9.563-46.256-9.563-62.651 0l-372.349 217.203c-16.499 9.626-31.525 35.786-31.525 54.886v19.256l378.005-208.899c16.302-9.010 36.749-13.514 57.195-13.514s40.893 4.504 57.195 13.514l378.005 208.899v-19.256c0-19.101-15.026-45.261-31.523-54.886z" />
<glyph unicode="&#xe68d;" glyph-name="star" d="M793.598 0c-4.205 0-8.422 1.034-12.258 3.126l-269.341 146.912-269.341-146.912c-8.598-4.691-19.118-4.061-27.098 1.613-7.981 5.677-12.022 15.41-10.413 25.069l49.034 294.206-195.483 195.485c-6.781 6.781-9.203 16.782-6.277 25.914s10.712 15.862 20.17 17.438l294.341 49.058 122.17 244.339c4.336 8.674 13.2 14.152 22.898 14.152s18.562-5.478 22.898-14.152l122.17-244.339 294.341-49.058c9.459-1.576 17.243-8.307 20.17-17.438s0.504-19.133-6.277-25.914l-195.483-195.485 49.034-294.206c1.61-9.659-2.434-19.392-10.413-25.069-4.419-3.144-9.621-4.739-14.84-4.739zM512 204.8c4.219 0 8.437-1.042 12.259-3.126l235.445-128.426-42.557 255.344c-1.36 8.155 1.302 16.464 7.15 22.309l169.626 169.626-258.131 43.022c-8.080 1.346-15.027 6.477-18.69 13.803l-105.102 210.205-105.102-210.205c-3.664-7.326-10.61-12.458-18.69-13.803l-258.131-43.022 169.624-169.626c5.846-5.845 8.509-14.155 7.15-22.309l-42.557-255.344 235.446 128.426c3.821 2.085 8.040 3.126 12.259 3.126z" />
<glyph unicode="&#xe6a5;" glyph-name="eye" d="M1017.429 452.326c-2.429 2.698-60.515 66.826-151.349 131.706-53.587 38.277-107.499 68.826-160.234 90.8-66.837 27.848-132.056 41.968-193.846 41.968s-127.010-14.12-193.846-41.97c-52.736-21.973-106.646-52.523-160.234-90.8-90.832-64.878-148.92-129.006-151.349-131.704-8.763-9.736-8.763-24.515 0-34.251 2.429-2.699 60.517-66.827 151.349-131.707 53.587-38.277 107.498-68.827 160.234-90.8 66.837-27.848 132.056-41.968 193.846-41.968s127.010 14.12 193.846 41.968c52.734 21.973 106.645 52.523 160.234 90.8 90.834 64.88 148.92 129.008 151.349 131.706 8.762 9.736 8.762 24.517 0 34.253zM643.789 643.157c46.458-39.074 73.011-95.923 73.011-156.757 0-112.926-91.874-204.8-204.8-204.8-112.928 0-204.8 91.874-204.8 204.8 0 60.835 26.554 117.685 73.014 156.757 42.107 13.744 86.602 22.443 131.786 22.443 45.186 0 89.682-8.699 131.789-22.443zM835.418 327.387c-78.488-55.925-198.309-122.587-323.418-122.587s-244.93 66.662-323.416 122.587c-59.24 42.21-104.574 84.89-127.458 107.813 22.888 22.928 68.222 65.606 127.458 107.813 27.13 19.331 59.2 39.942 94.72 58.643-17.766-35.224-27.304-74.52-27.304-115.256 0-141.16 114.842-256 256-256 141.16 0 256 114.84 256 256 0 40.734-9.538 80.032-27.301 115.256 35.517-18.701 67.589-39.312 94.718-58.643 59.238-42.21 104.573-84.89 127.456-107.813-22.888-22.928-68.222-65.606-127.456-107.813z" />
<glyph unicode="&#xe6a6;" glyph-name="eye-crossed" d="M1017.429 452.326c-2.429 2.698-60.515 66.826-151.349 131.706-30.728 21.949-61.562 41.341-92.218 58.048l88.301 81.509c10.389 9.59 11.037 25.786 1.446 36.174-9.59 10.39-25.786 11.035-36.174 1.446l-102.555-94.666c-6.36 2.883-12.704 5.65-19.034 8.286-66.837 27.85-132.056 41.97-193.846 41.97s-127.010-14.12-193.846-41.97c-52.736-21.973-106.646-52.523-160.234-90.8-90.832-64.878-148.92-129.006-151.349-131.704-8.763-9.736-8.763-24.515 0-34.251 2.429-2.699 60.517-66.827 151.349-131.707 30.728-21.949 61.56-41.342 92.218-58.048l-88.301-81.509c-10.389-9.59-11.037-25.786-1.446-36.174 5.046-5.467 11.922-8.235 18.818-8.235 6.208 0 12.435 2.245 17.358 6.789l102.555 94.667c6.36-2.883 12.706-5.65 19.034-8.288 66.835-27.85 132.054-41.97 193.845-41.97s127.010 14.12 193.846 41.968c52.734 21.973 106.645 52.523 160.234 90.8 90.834 64.88 148.92 129.008 151.349 131.706 8.762 9.736 8.762 24.517 0 34.253zM716.8 486.4c0-112.926-91.872-204.8-204.8-204.8-36.384 0-70.573 9.549-100.218 26.253l286.294 264.272c12.203-26.486 18.723-55.614 18.723-85.725zM643.787 643.157c9.774-8.221 18.662-17.234 26.613-26.901l-300.397-277.29c-38.691 37.277-62.803 89.59-62.803 147.434 0 60.835 26.552 117.683 73.013 156.757 42.109 13.744 86.602 22.443 131.787 22.443s89.68-8.699 131.787-22.443zM188.584 327.387c-59.24 42.21-104.574 84.89-127.458 107.813 22.888 22.928 68.222 65.606 127.458 107.813 27.13 19.331 59.2 39.942 94.72 58.643-17.766-35.222-27.304-74.52-27.304-115.256 0-71.224 29.248-135.738 76.35-182.19l-42.248-38.997c-38.229 19.614-72.669 41.619-101.518 62.174zM835.418 327.387c-78.488-55.925-198.309-122.587-323.418-122.587-59.717 0-118.224 15.194-171.61 37.152l32.275 29.792c40.125-26.134 87.984-41.344 139.334-41.344 141.158 0 256 114.84 256 256 0 40.734-9.538 80.032-27.301 115.256 35.518-18.701 67.589-39.312 94.718-58.643 59.238-42.21 104.573-84.89 127.456-107.813-22.888-22.928-68.222-65.606-127.456-107.813z" />
<glyph unicode="&#xe6aa;" glyph-name="binoculars2" d="M1023.893 210.845c-2.269 102.637-61.44 245.126-111.272 347.554-53.754 110.491-120.568 221.755-152.117 253.302-24.099 24.098-65.446 26.699-82.104 26.699s-58.005-2.602-82.099-26.698c-11.982-11.982-25.275-36.747-33.010-129.576-0.683-8.174-1.309-16.76-1.886-25.744-14.739 5.952-31.606 9.218-49.405 9.218-17.784 0-34.659-3.306-49.402-9.274-0.574 9.005-1.203 17.61-1.886 25.8-7.736 92.83-21.029 117.595-33.010 129.576-24.098 24.096-65.443 26.698-82.102 26.698s-58.005-2.602-82.102-26.698c-31.547-31.547-98.365-142.811-152.118-253.302-49.829-102.429-109.003-244.915-111.27-347.555-0.067-2.008-0.109-4.021-0.109-6.045 0-112.926 103.357-204.8 230.4-204.8 126.718 0 229.861 91.406 230.387 203.936 0.096 2.050 0.613 13.307 1.317 31.366 4.886 9.709 23.288 20.698 49.896 20.698s45.010-10.989 49.898-20.698c0.701-17.99 1.216-29.234 1.315-31.347 0.512-112.536 103.661-203.955 230.387-203.955 127.043 0 230.4 91.874 230.4 204.8 0 2.024-0.042 4.037-0.107 6.045zM613.902 672.845c6.672 84.549 17.246 100.878 18.746 102.797 15.675 15.299 76.251 15.251 91.648-0.144 21.037-21.038 82.187-115.971 142.283-239.498 30.552-62.8 54.96-120.968 72.648-172.622-39.717 28.874-90.434 46.222-145.627 46.222-74.798 0-141.374-31.854-183.494-81.098-1.131 43.71-2.058 95.122-2.104 147.363-0.070 80.189 1.914 146.462 5.901 196.979zM157.421 536c60.093 123.525 121.243 218.459 142.282 239.498 15.395 15.395 75.973 15.443 91.65 0.144 1.498-1.918 12.066-18.238 18.738-102.73 3.989-50.49 5.976-116.731 5.907-196.88-0.045-52.288-0.973-103.765-2.107-147.526-42.115 49.24-108.691 81.094-183.49 81.094-55.194 0-105.91-17.349-145.63-46.222 17.691 51.656 42.099 109.824 72.651 172.622zM230.4 51.2c-98.811 0-179.2 68.904-179.2 153.6 0 1.342 0.038 2.733 0.066 4.106 2.547 82.805 81.925 149.494 179.134 149.494 98.811 0 179.2-68.904 179.2-153.6s-80.389-153.6-179.2-153.6zM512 307.2c-17.347 0-33.546-3.098-47.725-8.581 1.506 50.371 2.925 115.368 2.925 181.381 0 43.528-0.61 83.024-1.816 118.219 7.834 8.461 24.986 16.181 46.616 16.181 22.406 0 38.987-7.869 46.618-16.15-1.208-35.203-1.818-74.71-1.818-118.25 0-66.013 1.419-131.010 2.923-181.381-14.178 5.483-30.376 8.581-47.723 8.581zM793.6 51.2c-98.811 0-179.2 68.904-179.2 153.6s80.389 153.6 179.2 153.6c97.21 0 176.587-66.69 179.134-149.494 0.029-1.373 0.066-2.766 0.066-4.106 0-84.696-80.389-153.6-179.2-153.6z" />
<glyph unicode="&#xe6b8;" glyph-name="copy" d="M844.8 768h-128v128c0 42.347-34.451 76.8-76.8 76.8h-384c-6.79 0-13.301-2.698-18.101-7.499l-179.2-179.2c-4.802-4.8-7.499-11.312-7.499-18.101v-537.6c0-42.349 34.453-76.8 76.8-76.8h128v-128c0-42.349 34.453-76.8 76.8-76.8h512c42.349 0 76.8 34.451 76.8 76.8v665.6c0 42.347-34.451 76.8-76.8 76.8zM256 910.997v-117.397c0-14.115-11.485-25.6-25.6-25.6h-117.397l142.997 142.997zM128 204.8c-14.115 0-25.6 11.485-25.6 25.6v486.4h128c42.347 0 76.8 34.453 76.8 76.8v128h332.8c14.115 0 25.6-11.485 25.6-25.6v-128h-204.8c-6.79 0-13.301-2.698-18.101-7.499l-179.2-179.2c-4.802-4.8-7.499-11.312-7.499-18.101v-358.4h-128zM460.8 706.197v-117.397c0-14.115-11.485-25.6-25.6-25.6h-117.397l142.997 142.997zM870.4 25.6c0-14.115-11.485-25.6-25.6-25.6h-512c-14.115 0-25.6 11.485-25.6 25.6v486.4h128c42.347 0 76.8 34.453 76.8 76.8v128h332.8c14.115 0 25.6-11.485 25.6-25.6v-665.6z" />
<glyph unicode="&#xe6da;" glyph-name="graduation-hat" d="M955.296 613.086l-460.8 153.6c-5.254 1.752-10.936 1.752-16.19 0l-460.8-153.6c-10.454-3.485-17.506-13.267-17.506-24.286s7.051-20.802 17.504-24.286l136.096-45.365v-135.149c0-6.789 2.698-13.301 7.499-18.101 4.486-4.488 112.346-109.899 325.301-109.899 77.454 0 149.712 13.941 214.766 41.434 13.024 5.504 19.118 20.523 13.616 33.547-5.504 13.024-20.525 19.117-33.547 13.616-58.714-24.816-124.266-37.397-194.835-37.397-99.586 0-172.84 25.781-216.758 47.41-32.53 16.019-54.259 32.203-64.842 40.926v106.547l273.504-91.168c2.627-0.877 5.362-1.314 8.096-1.314s5.467 0.437 8.096 1.314l273.504 91.168v-45.686c-29.797-10.568-51.2-39.024-51.2-72.397 0-31.269 18.792-58.213 45.666-70.181l-44.901-179.61c-1.91-7.648-0.194-15.75 4.658-21.965s12.294-9.845 20.178-9.845h102.4c7.883 0 15.326 3.632 20.178 9.845s6.568 14.315 4.658 21.965l-44.901 179.61c26.874 11.968 45.666 38.912 45.666 70.181 0 33.373-21.403 61.829-51.2 72.397v62.752l136.096 45.366c10.453 3.483 17.504 13.266 17.504 24.285s-7.051 20.802-17.504 24.286zM793.6 409.6c14.115 0 25.6-11.485 25.6-25.6s-11.485-25.6-25.6-25.6-25.6 11.485-25.6 25.6 11.485 25.6 25.6 25.6zM775.187 153.6l18.413 73.648 18.413-73.648h-36.826zM791.536 563.898l-300.928 50.155c-13.952 2.322-27.136-7.099-29.461-21.042-2.325-13.947 7.098-27.138 21.043-29.461l205.533-34.256-201.323-67.11-379.846 126.616 379.846 126.616 379.845-126.616-74.709-24.902z" />
<glyph unicode="&#xe6ff;" glyph-name="camera" d="M979.496 99.669c-0.003 0-0.005 0-0.008 0-12.378 0.002-24.846 4.957-37.059 14.725l-176.038 140.832c-28.272 22.613-49.59 66.97-49.59 103.174v153.6c0 36.203 21.318 80.56 49.589 103.174l176.037 140.83c12.216 9.773 24.686 14.726 37.066 14.726 22.155 0.002 44.509-16.675 44.509-53.931v-563.2c0-14.234-3.275-26.197-9.733-35.558-8.056-11.675-20.73-18.373-34.771-18.373zM972.8 714.736l-174.427-139.542c-15.896-12.717-30.373-42.837-30.373-63.194v-153.6c0-20.358 14.477-50.478 30.371-63.194l174.429-139.542v559.072zM588.8 102.4h-512c-42.347 0-76.8 34.453-76.8 76.8v512c0 42.347 34.453 76.8 76.8 76.8h512c42.347 0 76.8-34.453 76.8-76.8v-512c0-42.347-34.453-76.8-76.8-76.8zM76.8 716.8c-14.115 0-25.6-11.485-25.6-25.6v-512c0-14.115 11.485-25.6 25.6-25.6h512c14.115 0 25.6 11.485 25.6 25.6v512c0 14.115-11.485 25.6-25.6 25.6h-512z" />
<glyph unicode="&#xe717;" glyph-name="label" d="M640 102.4h-563.2c-42.347 0-76.8 34.451-76.8 76.8v512c0 42.347 34.453 76.8 76.8 76.8h563.2c36.024 0 80.581-20.869 103.643-48.544l190.445-228.534c26.038-31.245 26.038-80.198-0.002-111.443l-190.442-228.534c-23.064-27.675-67.621-48.544-103.645-48.544zM76.8 716.8c-14.115 0-25.6-11.485-25.6-25.6v-512c0-14.115 11.485-25.6 25.6-25.6h563.2c20.52 0 51.173 14.358 64.312 30.122l190.443 228.534c10.187 12.222 10.187 33.666 0.002 45.888l-190.446 228.534c-13.138 15.765-43.79 30.122-64.31 30.122h-563.2z" />
<glyph unicode="&#xe723;" glyph-name="users2" d="M947.2 51.2h-563.2c-42.347 0-76.8 34.453-76.8 76.8 0 2.461 0.538 60.952 47.331 118.544 26.883 33.088 63.541 59.31 108.952 77.941 54.856 22.504 122.858 33.915 202.117 33.915s147.261-11.411 202.117-33.915c45.411-18.63 82.067-44.853 108.952-77.941 46.794-57.592 47.331-116.083 47.331-118.544 0-42.347-34.453-76.8-76.8-76.8zM358.4 127.869c0.072-14.056 11.528-25.469 25.6-25.469h563.2c14.072 0 25.528 11.413 25.6 25.469-0.048 1.786-1.656 45.802-37.851 88.786-49.88 59.235-143.019 90.546-269.349 90.546s-219.469-31.31-269.349-90.546c-36.194-42.984-37.803-87-37.851-88.786zM665.6 409.6c-112.926 0-204.8 91.874-204.8 204.8 0 112.928 91.874 204.8 204.8 204.8s204.8-91.872 204.8-204.8c0-112.926-91.874-204.8-204.8-204.8zM665.6 768c-84.696 0-153.6-68.904-153.6-153.6s68.904-153.6 153.6-153.6 153.6 68.904 153.6 153.6-68.904 153.6-153.6 153.6zM230.4 51.2h-153.6c-42.347 0-76.8 34.451-76.8 76.8 0 1.915 0.386 47.446 33.92 92.16 19.373 25.832 45.778 46.299 78.483 60.834 39.126 17.389 87.438 26.206 143.597 26.206 9.16 0 18.232-0.235 26.962-0.701 14.118-0.754 24.954-12.81 24.2-26.928-0.752-14.117-12.781-24.96-26.928-24.2-7.826 0.418-15.979 0.629-24.234 0.629-199.366 0-204.666-121.826-204.8-128.131 0.072-14.054 11.528-25.469 25.6-25.469h153.6c14.138 0 25.6-11.461 25.6-25.6s-11.462-25.6-25.6-25.6zM256 358.4c-84.696 0-153.6 68.904-153.6 153.6s68.904 153.6 153.6 153.6 153.6-68.904 153.6-153.6-68.904-153.6-153.6-153.6zM256 614.4c-56.464 0-102.4-45.936-102.4-102.4s45.936-102.4 102.4-102.4 102.4 45.936 102.4 102.4c0 56.464-45.936 102.4-102.4 102.4z" />
<glyph unicode="&#xe759;" glyph-name="credit-card" d="M947.2 819.2h-870.4c-42.347 0-76.8-34.453-76.8-76.8v-563.2c0-42.349 34.453-76.8 76.8-76.8h870.4c42.349 0 76.8 34.451 76.8 76.8v563.2c0 42.347-34.451 76.8-76.8 76.8zM76.8 768h870.4c14.115 0 25.6-11.485 25.6-25.6v-25.6h-921.6v25.6c0 14.115 11.485 25.6 25.6 25.6zM972.8 665.6v-153.6h-921.6v153.6h921.6zM947.2 153.6h-870.4c-14.115 0-25.6 11.485-25.6 25.6v281.6h921.6v-281.6c0-14.115-11.485-25.6-25.6-25.6zM870.4 256h51.2v-51.2h-51.2v51.2zM665.6 256h153.6v-51.2h-153.6v51.2zM512 256h102.4v-51.2h-102.4v51.2z" />
<glyph unicode="&#xe777;" glyph-name="telephone2" d="M916.19 517.291c-53.283-0.002-149.901 19.214-180.016 49.326-18.466 18.466-22.854 41.64-26.381 60.262-4.344 22.931-6.95 29.755-17.010 34.077-46.194 19.853-112.456 31.238-181.8 31.238-68.621 0-134.16-11.189-179.81-30.699-9.939-4.248-12.499-11.050-16.741-33.938-3.459-18.672-7.765-41.91-26.234-60.381-16.814-16.813-51.976-28.36-78.512-35.086-34.218-8.674-70.85-13.646-100.502-13.646-33.982 0-56.965 6.461-70.258 19.755-20.021 20.019-32.797 47.4-35.050 75.12-1.901 23.365 2.6 57.979 34.824 90.205 52.315 52.315 122.699 93.11 209.195 121.253 79.549 25.882 170.093 39.562 261.842 39.562 92.378 0 183.67-13.848 264.006-40.048 87.304-28.472 158.35-69.688 211.163-122.499 53.766-53.765 40.451-125.102 0.629-164.928-13.173-13.17-35.856-19.571-69.347-19.573zM510.986 743.395c77.157 0 148.901-12.571 202.014-35.398 36.51-15.69 42.632-48 47.099-71.59 2.672-14.104 4.979-26.285 12.28-33.586 12.915-12.914 87.362-34.331 143.811-34.33 24.638 0 32.398 4.219 33.4 4.835 15.851 16.061 35.757 55.621-0.885 92.261-92.392 92.392-256.493 147.552-438.966 147.552-180.973 0-343.526-54.51-434.832-145.818-14.76-14.76-21.488-31.533-19.998-49.853 1.258-15.462 8.72-31.445 19.986-42.827 0.965-0.606 8.846-5 34.291-5 56.242 0 130.12 21.048 142.811 33.738 7.226 7.227 9.482 19.403 12.094 33.502 4.382 23.659 10.386 56.061 46.963 71.691 52.538 22.456 123.541 34.822 199.931 34.822zM844.8 51.2h-665.6c-34.347 0-66.043 13.509-89.248 38.040-23.206 24.531-34.936 56.928-33.032 91.222 0.218 3.928 6.024 97.307 65.029 191.453 34.904 55.694 81.181 100.088 137.541 131.946 69.658 39.374 154.613 59.339 252.51 59.339s182.853-19.965 252.509-59.339c56.363-31.858 102.637-76.251 137.542-131.946 59.005-94.146 64.811-187.525 65.030-191.453 1.904-34.296-9.827-66.691-33.034-91.222s-54.901-38.040-89.248-38.040zM512 512c-159.592 0-275.859-55.696-345.574-165.541-52.726-83.077-58.336-168.038-58.387-168.888-1.114-20.050 5.67-38.942 19.107-53.146s31.923-22.026 52.054-22.026h665.6c20.131 0 38.618 7.822 52.054 22.027 13.435 14.203 20.222 33.096 19.104 53.195-0.046 0.798-5.658 85.762-58.384 168.837-69.715 109.845-185.984 165.541-345.574 165.541zM512 153.6c-84.696 0-153.6 68.904-153.6 153.6s68.904 153.6 153.6 153.6 153.6-68.904 153.6-153.6-68.904-153.6-153.6-153.6zM512 409.6c-56.464 0-102.4-45.936-102.4-102.4s45.936-102.4 102.4-102.4c56.464 0 102.4 45.936 102.4 102.4s-45.936 102.4-102.4 102.4z" />
<glyph unicode="&#xe77a;" glyph-name="map-marker" d="M512-51.2c-7.856 0-15.277 3.606-20.13 9.784-2.931 3.73-72.587 92.864-143.229 224.51-41.581 77.491-74.742 153.568-98.565 226.118-30.043 91.499-45.277 177.758-45.277 256.387 0 169.39 137.81 307.2 307.2 307.2s307.2-137.81 307.2-307.2c0-78.629-15.234-164.888-45.278-256.386-23.822-72.55-56.984-148.629-98.565-226.118-70.64-131.646-140.298-220.781-143.229-224.51-4.851-6.179-12.272-9.786-20.128-9.786zM512 921.6c-141.158 0-256-114.842-256-256 0-166.597 74.914-341.176 137.758-458.296 46.186-86.074 92.634-154.306 118.237-189.938 25.709 35.789 72.429 104.432 118.688 190.76 62.643 116.902 137.317 291.163 137.317 457.474 0 141.158-114.84 256-256 256zM512 512c-84.696 0-153.6 68.904-153.6 153.6s68.904 153.6 153.6 153.6 153.6-68.904 153.6-153.6-68.904-153.6-153.6-153.6zM512 768c-56.464 0-102.4-45.936-102.4-102.4s45.936-102.4 102.4-102.4c56.464 0 102.4 45.936 102.4 102.4s-45.936 102.4-102.4 102.4z" />
<glyph unicode="&#xe783;" glyph-name="location" d="M435.202-51.202c-2.205 0-4.435 0.285-6.642 0.878-11.186 3.003-18.96 13.142-18.96 24.723v384h-384c-11.581 0-21.72 7.774-24.723 18.96-3.005 11.184 1.874 22.994 11.898 28.795l972.8 563.2c10.037 5.811 22.726 4.147 30.928-4.053 8.202-8.202 9.864-20.891 4.053-30.93l-563.2-972.8c-4.658-8.045-13.186-12.774-22.154-12.774zM120.912 409.6h314.288c14.138 0 25.6-11.461 25.6-25.6v-314.288l467.346 807.234-807.234-467.346z" />
<glyph unicode="&#xe791;" glyph-name="keyboard" d="M896 153.6h-819.2c-42.347 0-76.8 34.451-76.8 76.8v409.6c0 42.347 34.453 76.8 76.8 76.8h819.2c42.349 0 76.8-34.453 76.8-76.8v-409.6c0-42.349-34.451-76.8-76.8-76.8zM76.8 665.6c-14.115 0-25.6-11.485-25.6-25.6v-409.6c0-14.115 11.485-25.6 25.6-25.6h819.2c14.115 0 25.6 11.485 25.6 25.6v409.6c0 14.115-11.485 25.6-25.6 25.6h-819.2zM179.2 563.2h-51.2c-14.138 0-25.6 11.461-25.6 25.6s11.462 25.6 25.6 25.6h51.2c14.138 0 25.6-11.461 25.6-25.6s-11.462-25.6-25.6-25.6zM844.8 563.2h-51.2c-14.139 0-25.6 11.461-25.6 25.6s11.461 25.6 25.6 25.6h51.2c14.139 0 25.6-11.461 25.6-25.6s-11.461-25.6-25.6-25.6zM230.4 460.8h-102.4c-14.138 0-25.6 11.461-25.6 25.6s11.462 25.6 25.6 25.6h102.4c14.138 0 25.6-11.461 25.6-25.6s-11.462-25.6-25.6-25.6zM179.2 256h-51.2c-14.138 0-25.6 11.461-25.6 25.6s11.462 25.6 25.6 25.6h51.2c14.138 0 25.6-11.461 25.6-25.6s-11.462-25.6-25.6-25.6zM588.8 256h-307.2c-14.138 0-25.6 11.461-25.6 25.6s11.462 25.6 25.6 25.6h307.2c14.139 0 25.6-11.461 25.6-25.6s-11.461-25.6-25.6-25.6zM742.4 256h-51.2c-14.139 0-25.6 11.461-25.6 25.6s11.461 25.6 25.6 25.6h51.2c14.139 0 25.6-11.461 25.6-25.6s-11.461-25.6-25.6-25.6zM844.8 358.4h-153.6c-14.139 0-25.6 11.461-25.6 25.6s11.461 25.6 25.6 25.6h128v76.8c0 14.139 11.461 25.6 25.6 25.6s25.6-11.461 25.6-25.6v-102.4c0-14.139-11.461-25.6-25.6-25.6zM281.6 358.4h-153.6c-14.138 0-25.6 11.461-25.6 25.6s11.462 25.6 25.6 25.6h153.6c14.138 0 25.6-11.461 25.6-25.6s-11.462-25.6-25.6-25.6zM307.2 588.8c0-14.138-11.462-25.6-25.6-25.6s-25.6 11.462-25.6 25.6c0 14.138 11.462 25.6 25.6 25.6s25.6-11.462 25.6-25.6zM409.6 588.8c0-14.138-11.462-25.6-25.6-25.6s-25.6 11.462-25.6 25.6c0 14.138 11.462 25.6 25.6 25.6s25.6-11.462 25.6-25.6zM512 588.8c0-14.138-11.462-25.6-25.6-25.6s-25.6 11.462-25.6 25.6c0 14.138 11.462 25.6 25.6 25.6s25.6-11.462 25.6-25.6zM614.4 588.8c0-14.138-11.462-25.6-25.6-25.6s-25.6 11.462-25.6 25.6c0 14.138 11.462 25.6 25.6 25.6s25.6-11.462 25.6-25.6zM716.8 588.8c0-14.138-11.462-25.6-25.6-25.6s-25.6 11.462-25.6 25.6c0 14.138 11.462 25.6 25.6 25.6s25.6-11.462 25.6-25.6zM358.4 486.4c0-14.138-11.462-25.6-25.6-25.6s-25.6 11.462-25.6 25.6c0 14.138 11.462 25.6 25.6 25.6s25.6-11.462 25.6-25.6zM460.8 486.4c0-14.138-11.462-25.6-25.6-25.6s-25.6 11.462-25.6 25.6c0 14.138 11.462 25.6 25.6 25.6s25.6-11.462 25.6-25.6zM563.2 486.4c0-14.138-11.462-25.6-25.6-25.6s-25.6 11.462-25.6 25.6c0 14.138 11.462 25.6 25.6 25.6s25.6-11.462 25.6-25.6zM665.6 486.4c0-14.138-11.462-25.6-25.6-25.6s-25.6 11.462-25.6 25.6c0 14.138 11.462 25.6 25.6 25.6s25.6-11.462 25.6-25.6zM768 486.4c0-14.138-11.462-25.6-25.6-25.6s-25.6 11.462-25.6 25.6c0 14.138 11.462 25.6 25.6 25.6s25.6-11.462 25.6-25.6zM409.6 384c0-14.138-11.462-25.6-25.6-25.6s-25.6 11.462-25.6 25.6c0 14.138 11.462 25.6 25.6 25.6s25.6-11.462 25.6-25.6zM512 384c0-14.138-11.462-25.6-25.6-25.6s-25.6 11.462-25.6 25.6c0 14.138 11.462 25.6 25.6 25.6s25.6-11.462 25.6-25.6zM614.4 384c0-14.138-11.462-25.6-25.6-25.6s-25.6 11.462-25.6 25.6c0 14.138 11.462 25.6 25.6 25.6s25.6-11.462 25.6-25.6z" />
<glyph unicode="&#xe7a6;" glyph-name="smartphone" d="M537.6 51.2h-51.2c-14.138 0-25.6 11.461-25.6 25.6s11.462 25.6 25.6 25.6h51.2c14.139 0 25.6-11.461 25.6-25.6s-11.461-25.6-25.6-25.6zM742.4-51.2h-460.8c-42.347 0-76.8 34.451-76.8 76.8v870.4c0 42.347 34.453 76.8 76.8 76.8h460.8c42.349 0 76.8-34.453 76.8-76.8v-870.4c0-42.349-34.451-76.8-76.8-76.8zM281.6 921.6c-14.115 0-25.6-11.485-25.6-25.6v-870.4c0-14.115 11.485-25.6 25.6-25.6h460.8c14.115 0 25.6 11.485 25.6 25.6v870.4c0 14.115-11.485 25.6-25.6 25.6h-460.8zM691.2 153.6h-358.4c-14.138 0-25.6 11.461-25.6 25.6v665.6c0 14.138 11.462 25.6 25.6 25.6h358.4c14.139 0 25.6-11.462 25.6-25.6v-665.6c0-14.139-11.461-25.6-25.6-25.6zM358.4 204.8h307.2v614.4h-307.2v-614.4z" />
<glyph unicode="&#xe7b4;" glyph-name="cable2" d="M332.8 256h-153.6c-14.115 0-25.6 11.485-25.6 25.6v79.374c58.355 11.894 102.4 63.611 102.4 125.426v358.4c0 14.138-11.462 25.6-25.6 25.6h-76.8v76.8c0 14.138-11.462 25.6-25.6 25.6s-25.6-11.462-25.6-25.6v-76.8h-76.8c-14.138 0-25.6-11.462-25.6-25.6v-358.4c0-61.814 44.045-113.531 102.4-125.426v-79.374c0-42.349 34.453-76.8 76.8-76.8h153.6c14.115 0 25.6-11.485 25.6-25.6v-204.8c0-14.139 11.462-25.6 25.6-25.6s25.6 11.461 25.6 25.6v204.8c0 42.349-34.453 76.8-76.8 76.8zM204.8 819.2v-51.2h-153.6v51.2h153.6zM51.2 486.4v230.4h153.6v-230.4c0-42.349-34.453-76.8-76.8-76.8s-76.8 34.451-76.8 76.8zM588.8 870.4h-76.8v76.8c0 14.138-11.462 25.6-25.6 25.6s-25.6-11.462-25.6-25.6v-76.8h-76.8c-14.138 0-25.6-11.462-25.6-25.6v-358.4c0-61.814 44.045-113.531 102.4-125.426v-386.574c0-14.139 11.462-25.6 25.6-25.6s25.6 11.461 25.6 25.6v386.574c58.355 11.894 102.4 63.611 102.4 125.426v358.4c0 14.138-11.461 25.6-25.6 25.6zM563.2 819.2v-51.2h-153.6v51.2h153.6zM563.2 486.4c0-42.349-34.451-76.8-76.8-76.8-42.347 0-76.8 34.451-76.8 76.8v230.4h153.6v-230.4zM947.2 870.4h-76.8v76.8c0 14.138-11.461 25.6-25.6 25.6s-25.6-11.462-25.6-25.6v-76.8h-76.8c-14.139 0-25.6-11.462-25.6-25.6v-358.4c0-61.814 44.045-113.531 102.4-125.426v-79.374c0-14.115-11.485-25.6-25.6-25.6h-153.6c-42.349 0-76.8-34.451-76.8-76.8v-204.8c0-14.139 11.461-25.6 25.6-25.6s25.6 11.461 25.6 25.6v204.8c0 14.115 11.485 25.6 25.6 25.6h153.6c42.349 0 76.8 34.451 76.8 76.8v79.374c58.355 11.894 102.4 63.611 102.4 125.426v358.4c0 14.138-11.461 25.6-25.6 25.6zM921.6 819.2v-51.2h-153.6v51.2h153.6zM921.6 486.4c0-42.349-34.451-76.8-76.8-76.8s-76.8 34.451-76.8 76.8v230.4h153.6v-230.4z" />
<glyph unicode="&#xe7bc;" glyph-name="lamp" d="M537.6-51.2h-51.2c-14.138 0-25.6 11.461-25.6 25.6s11.462 25.6 25.6 25.6h51.2c14.138 0 25.6-11.461 25.6-25.6s-11.462-25.6-25.6-25.6zM512 972.8c-169.39 0-307.2-137.81-307.2-307.2 0-108.246 51.898-195.986 54.106-199.667 13.629-22.715 33-62.859 42.301-87.662l40.845-108.918c6.192-16.51 18.083-31.379 32.843-42.68-10.315-13.077-16.494-29.562-16.494-47.472 0-19.654 7.43-37.602 19.618-51.2-12.187-13.598-19.618-31.546-19.618-51.2 0-42.349 34.453-76.8 76.8-76.8h153.6c42.349 0 76.8 34.451 76.8 76.8 0 19.654-7.43 37.602-19.618 51.2 12.187 13.598 19.618 31.546 19.618 51.2 0 17.91-6.179 34.397-16.498 47.474 14.76 11.302 26.648 26.171 32.835 42.686l40.818 108.914c9.294 24.8 28.664 64.936 42.299 87.645 2.211 3.683 54.146 91.432 54.146 199.682 0 169.39-137.81 307.2-307.2 307.2zM588.8 51.2h-153.6c-14.115 0-25.6 11.485-25.6 25.6s11.485 25.6 25.6 25.6h153.6c14.115 0 25.6-11.485 25.6-25.6s-11.485-25.6-25.6-25.6zM614.4 179.2c0-14.115-11.485-25.6-25.6-25.6h-153.6c-14.115 0-25.6 11.485-25.6 25.6s11.485 25.6 25.6 25.6h153.6c14.115 0 25.6-11.485 25.6-25.6zM721.158 492.274c-15.197-25.31-35.987-68.392-46.346-96.034l-40.818-108.914c-6.144-16.395-27.686-31.326-45.195-31.326h-153.6c-17.512 0-39.059 14.933-45.206 31.33l-40.845 108.918c-10.365 27.635-31.15 70.714-46.338 96.027-0.47 0.779-46.811 79.106-46.811 173.325 0 141.158 114.842 256 256 256 141.16 0 256-114.842 256-256 0-93.65-46.394-172.576-46.842-173.326z" />
<glyph unicode="&#xe7bf;" glyph-name="cord" d="M960.309 94.714c-9.898 10.099-26.104 10.264-36.202 0.366-62.571-61.314-145.285-95.080-232.907-95.080-175.413 0-319.547 136.418-331.923 308.73 114.618 13.174 203.923 110.781 203.923 228.87v179.2h25.6c14.139 0 25.6 11.462 25.6 25.6s-11.461 25.6-25.6 25.6h-128v179.2c0 14.138-11.462 25.6-25.6 25.6s-25.6-11.462-25.6-25.6v-179.2h-153.6v179.2c0 14.138-11.462 25.6-25.6 25.6s-25.6-11.462-25.6-25.6v-179.2h-128c-14.138 0-25.6-11.462-25.6-25.6s11.462-25.6 25.6-25.6h25.6v-179.2c0-118.658 90.166-216.638 205.578-229.059 5.787-93.442 44.914-180.491 111.693-247.27 72.528-72.526 168.96-112.47 271.53-112.47 101.101 0 196.544 38.963 268.742 109.712 10.098 9.896 10.262 26.104 0.366 36.202zM153.6 537.6v179.2h358.4v-179.2c0-98.811-80.389-179.2-179.2-179.2s-179.2 80.389-179.2 179.2z" />
<glyph unicode="&#xe7db;" glyph-name="bubble-text2" d="M25.6 0c-11.507 0-21.6 7.677-24.67 18.766s1.634 22.864 11.501 28.784c86.566 51.941 122.483 127.413 135.216 162.755-94.086 72.048-147.646 171.746-147.646 276.094 0 52.704 13.23 103.755 39.323 151.736 24.902 45.794 60.406 86.806 105.526 121.899 91.504 71.17 212.802 110.365 341.55 110.365s250.046-39.195 341.552-110.366c45.118-35.093 80.624-76.104 105.526-121.899 26.091-47.979 39.322-99.030 39.322-151.734 0-52.702-13.23-103.755-39.322-151.736-24.902-45.794-60.408-86.806-105.526-121.899-91.506-71.17-212.803-110.365-341.552-110.365-52.907 0-104.8 6.627-154.437 19.707-21.974-14.637-63.040-40.605-112.086-65.005-76.163-37.89-141.528-57.102-194.277-57.102zM486.4 819.2c-239.97 0-435.2-149.294-435.2-332.8 0-92.946 51.432-182.379 141.107-245.368 8.797-6.178 12.795-17.194 10.011-27.576-5.984-22.325-26.365-83.598-80.88-142.736 66.664 23.339 138.422 63.83 191.435 100.288 6.298 4.328 14.2 5.619 21.544 3.52 48.558-13.888 99.693-20.928 151.982-20.928 239.97 0 435.2 149.294 435.2 332.8s-195.23 332.8-435.2 332.8zM691.2 614.4h-409.6c-14.138 0-25.6 11.462-25.6 25.6s11.462 25.6 25.6 25.6h409.6c14.139 0 25.6-11.462 25.6-25.6s-11.461-25.6-25.6-25.6zM691.2 512h-409.6c-14.138 0-25.6 11.462-25.6 25.6s11.462 25.6 25.6 25.6h409.6c14.139 0 25.6-11.462 25.6-25.6s-11.461-25.6-25.6-25.6zM691.2 409.6h-409.6c-14.138 0-25.6 11.461-25.6 25.6s11.462 25.6 25.6 25.6h409.6c14.139 0 25.6-11.461 25.6-25.6s-11.461-25.6-25.6-25.6zM588.8 307.2h-307.2c-14.138 0-25.6 11.461-25.6 25.6s11.462 25.6 25.6 25.6h307.2c14.139 0 25.6-11.461 25.6-25.6s-11.461-25.6-25.6-25.6z" />
<glyph unicode="&#xe800;" glyph-name="user-new" d="M746.138 314.522c-16.794 7.373-32.614 14.387-46.797 21.709-7.526 3.891-13.875 8.090-16.742 9.216-6.298 16.435-13.67 34.56-17.357 43.52 23.091 27.494 42.291 60.928 55.962 97.178 1.229-0.358 2.56-0.614 3.789-0.819l5.939-0.819 2.918 1.075 16.077-1.792 6.605 17.92c1.331 3.635 2.253 7.987 2.918 13.773 2.048 18.125 5.018 26.061 9.165 32.922 13.466 22.17 13.517 39.27 11.776 52.941-3.738 32.256-17.818 40.858-28.314 42.598 3.738 13.466 6.349 26.368 7.629 37.888 4.915 20.019 7.322 38.349 7.322 56.013 0 129.587-112.64 235.008-253.338 235.008 0 0-0.051 0-0.102 0l-5.478-0.051c-138.547 0-251.187-105.472-251.187-235.059 0-17.766 2.406-36.096 6.451-51.251 1.894-14.899 4.659-28.774 8.602-42.957-10.598-2.048-24.832-10.701-28.365-41.882-1.741-13.926-1.741-31.181 11.674-53.146 4.147-7.014 7.219-14.95 9.216-32.768 0.614-5.837 1.485-10.342 2.867-14.080l2.56-18.176 19.507 2.611 15.053-4.557c13.722-34.714 32.256-66.458 54.272-92.621-3.584-9.011-10.394-26.214-14.797-39.885-5.325-4.659-11.725-8.858-19.354-12.851-14.182-7.27-30.106-14.285-46.95-21.76-102.195-45.414-242.176-107.571-237.67-341.76l0.41-23.859h943.104l0.512 23.91c4.608 234.24-135.526 296.346-237.875 341.811zM88.781-2.458c5.171 182.016 112.998 229.888 208.64 272.333 17.715 7.782 34.458 15.258 49.459 22.989 11.264 5.786 20.736 12.134 29.184 19.558 4.762 4.198 8.294 9.318 10.752 15.462 7.834 20.48 17.408 43.674 18.893 47.155 5.939 13.926 3.379 30.208-6.554 41.574-22.63 25.805-41.267 58.675-53.914 95.13-3.942 11.264-12.749 20.070-23.91 24.064-3.584 1.28-7.27 2.048-11.059 2.253-2.714 13.978-6.912 24.986-13.261 35.738-6.451 10.445-5.786 15.667-4.966 22.067 0 0.102 0 0.205 0.051 0.358 9.523 1.946 18.176 7.424 23.962 15.36 7.424 10.138 9.574 23.347 5.734 35.43-4.966 15.462-8.038 29.491-10.598 48.486-3.686 14.336-5.53 28.518-5.53 42.24 0 102.758 90.778 186.317 202.445 186.317h7.782c111.565 0 202.394-83.558 202.394-186.317 0-13.875-1.894-28.006-6.4-47.155-1.792-14.49-5.018-28.774-9.728-43.674-3.789-11.981-1.485-25.293 6.349-35.84 5.99-7.936 15.206-13.312 23.398-14.899 0.051-0.205 0.051-0.461 0.102-0.666 0.768-5.99 1.331-11.162-5.171-21.914-6.195-10.291-10.291-20.992-13.158-35.482-3.686-0.205-7.424-0.973-11.059-2.202-11.162-3.994-19.917-12.698-24.115-24.269-12.493-36.25-31.13-69.12-53.965-95.13-9.933-11.52-12.339-27.955-6.246-41.626 1.024-2.458 10.752-26.061 18.79-46.95 2.202-5.837 5.734-10.957 10.854-15.565 8.397-7.373 17.971-13.722 29.030-19.405 15.002-7.731 31.744-15.206 49.459-22.989 95.642-42.445 203.571-90.368 208.64-272.333h-846.285z" />
<glyph unicode="&#xe801;" glyph-name="gesture" d="M512.488-51.2l-0.049 48.762c48.908 0.049 97.036 7.704 143.067 22.674l15.116-46.373c-50.907-16.579-104.058-25.015-158.135-25.064zM354.353-26.478c-51.102 16.53-99.133 40.96-142.726 72.606l28.623 39.497c39.497-28.623 82.895-50.761 129.122-65.682l-15.019-46.421zM813.202 46.714l-28.721 39.4c39.351 28.672 73.826 63.195 102.449 102.546l39.448-28.672c-31.646-43.496-69.73-81.579-113.176-113.274zM98.255 159.159c-31.793 43.544-56.369 91.477-73.045 142.531l46.324 15.165c15.067-46.129 37.303-89.527 66.072-128.926l-39.351-28.77zM999.083 302.616l-46.373 15.067c14.97 46.031 22.528 94.208 22.528 143.116l48.762 1.95v-1.95c0-54.028-8.387-107.276-24.917-158.184zM5.51 459.922h-5.51c0 54.565 8.29 107.471 24.576 158.086l46.421-14.97c-14.775-45.787-22.235-93.623-22.235-142.238l-43.252-0.878zM952.125 605.623c-15.165 46.080-37.449 89.429-66.316 128.829l39.351 28.818c31.89-43.496 56.564-91.429 73.289-142.385l-46.324-15.262zM136.533 732.209l-39.497 28.623c31.5 43.544 69.486 81.676 112.884 113.469l28.818-39.351c-39.253-28.77-73.63-63.342-102.205-102.741zM783.019 836.51c-39.546 28.574-83.042 50.615-129.219 65.438l14.921 46.421c51.102-16.384 99.182-40.765 142.872-72.314l-28.574-39.546zM367.616 901.071l-15.214 46.324c50.907 16.677 104.107 25.259 158.086 25.405l0.146-48.762c-48.859-0.146-97.036-7.899-143.019-22.967z" />
<glyph unicode="&#xe836;" glyph-name="speed-fast" d="M486.4 204.8c-20.514 0-39.8 7.987-54.306 22.494-29.944 29.946-29.944 78.667 0 108.613 20.6 20.598 217.693 156.88 256.994 183.99 10.171 7.014 23.901 5.765 32.637-2.971s9.987-22.467 2.971-32.637c-27.11-39.301-163.392-236.395-183.992-256.994-14.504-14.507-33.79-22.496-54.304-22.496zM601.035 396.235c-68.845-48.374-124.701-88.589-132.742-96.538-9.976-9.978-9.976-26.219 0.005-36.202 4.834-4.834 11.264-7.498 18.101-7.498s13.267 2.662 18.101 7.498c7.949 8.040 48.162 63.894 96.536 132.739zM830.336 676.736c-91.869 91.869-214.014 142.464-343.936 142.464-129.923 0-252.067-50.595-343.936-142.464s-142.464-214.014-142.464-343.936c0-96.728 28.33-190.176 81.925-270.246 4.752-7.099 12.731-11.36 21.274-11.36l766.402 0.002c8.542 0 16.522 4.261 21.274 11.36 53.597 80.067 81.926 173.515 81.926 270.245 0 129.922-50.594 252.067-142.464 343.936zM855.678 102.395l-738.558-0.002c-38.661 61.818-60.93 131.928-65.163 204.806h24.843c14.138 0 25.6 11.461 25.6 25.6s-11.462 25.6-25.6 25.6h-24.827c12.805 219.624 189.203 396.022 408.827 408.827v-24.827c0-14.138 11.462-25.6 25.6-25.6s25.6 11.462 25.6 25.6v24.827c219.626-12.805 396.022-189.203 408.827-408.827h-24.827c-14.139 0-25.6-11.461-25.6-25.6s11.461-25.6 25.6-25.6h24.843c-4.234-72.878-26.504-142.99-65.165-204.805z" />
<glyph unicode="&#xe878;" glyph-name="glasses2" d="M998.4 512h-32.080c-22.794 88.234-103.067 153.6-198.32 153.6-85.422 0-158.782-52.576-189.459-127.062-17.912 15.355-41.154 24.662-66.541 24.662s-48.629-9.307-66.541-24.662c-30.675 74.486-104.037 127.062-189.459 127.062-95.254 0-175.528-65.366-198.32-153.6h-32.080c-14.138 0-25.6-11.461-25.6-25.6s11.462-25.6 25.6-25.6h25.6c0-112.926 91.872-204.8 204.8-204.8s204.8 91.874 204.8 204.8c0 28.232 22.968 51.2 51.2 51.2s51.2-22.968 51.2-51.2c0-112.926 91.874-204.8 204.8-204.8s204.8 91.874 204.8 204.8h25.6c14.139 0 25.6 11.461 25.6 25.6s-11.461 25.6-25.6 25.6zM256 307.2c-84.696 0-153.6 68.904-153.6 153.6s68.904 153.6 153.6 153.6 153.6-68.904 153.6-153.6-68.904-153.6-153.6-153.6zM768 307.2c-84.696 0-153.6 68.904-153.6 153.6s68.904 153.6 153.6 153.6 153.6-68.904 153.6-153.6-68.904-153.6-153.6-153.6z" />
<glyph unicode="&#xe880;" glyph-name="icons2" d="M179.2 0h-102.4c-42.347 0-76.8 34.453-76.8 76.8v102.4c0 42.347 34.453 76.8 76.8 76.8h102.4c42.347 0 76.8-34.453 76.8-76.8v-102.4c0-42.347-34.453-76.8-76.8-76.8zM76.8 204.8c-14.115 0-25.6-11.485-25.6-25.6v-102.4c0-14.115 11.485-25.6 25.6-25.6h102.4c14.115 0 25.6 11.485 25.6 25.6v102.4c0 14.115-11.485 25.6-25.6 25.6h-102.4zM537.6 0h-102.4c-42.347 0-76.8 34.453-76.8 76.8v102.4c0 42.347 34.453 76.8 76.8 76.8h102.4c42.347 0 76.8-34.453 76.8-76.8v-102.4c0-42.347-34.453-76.8-76.8-76.8zM435.2 204.8c-14.115 0-25.6-11.485-25.6-25.6v-102.4c0-14.115 11.485-25.6 25.6-25.6h102.4c14.115 0 25.6 11.485 25.6 25.6v102.4c0 14.115-11.485 25.6-25.6 25.6h-102.4zM896 0h-102.4c-42.347 0-76.8 34.453-76.8 76.8v102.4c0 42.347 34.453 76.8 76.8 76.8h102.4c42.347 0 76.8-34.453 76.8-76.8v-102.4c0-42.347-34.453-76.8-76.8-76.8zM793.6 204.8c-14.115 0-25.6-11.485-25.6-25.6v-102.4c0-14.115 11.485-25.6 25.6-25.6h102.4c14.115 0 25.6 11.485 25.6 25.6v102.4c0 14.115-11.485 25.6-25.6 25.6h-102.4zM179.2 358.4h-102.4c-42.347 0-76.8 34.453-76.8 76.8v102.4c0 42.347 34.453 76.8 76.8 76.8h102.4c42.347 0 76.8-34.453 76.8-76.8v-102.4c0-42.347-34.453-76.8-76.8-76.8zM76.8 563.2c-14.115 0-25.6-11.485-25.6-25.6v-102.4c0-14.115 11.485-25.6 25.6-25.6h102.4c14.115 0 25.6 11.485 25.6 25.6v102.4c0 14.115-11.485 25.6-25.6 25.6h-102.4zM537.6 358.4h-102.4c-42.347 0-76.8 34.453-76.8 76.8v102.4c0 42.347 34.453 76.8 76.8 76.8h102.4c42.347 0 76.8-34.453 76.8-76.8v-102.4c0-42.347-34.453-76.8-76.8-76.8zM435.2 563.2c-14.115 0-25.6-11.485-25.6-25.6v-102.4c0-14.115 11.485-25.6 25.6-25.6h102.4c14.115 0 25.6 11.485 25.6 25.6v102.4c0 14.115-11.485 25.6-25.6 25.6h-102.4zM896 358.4h-102.4c-42.347 0-76.8 34.453-76.8 76.8v102.4c0 42.347 34.453 76.8 76.8 76.8h102.4c42.347 0 76.8-34.453 76.8-76.8v-102.4c0-42.347-34.453-76.8-76.8-76.8zM793.6 563.2c-14.115 0-25.6-11.485-25.6-25.6v-102.4c0-14.115 11.485-25.6 25.6-25.6h102.4c14.115 0 25.6 11.485 25.6 25.6v102.4c0 14.115-11.485 25.6-25.6 25.6h-102.4zM179.2 716.8h-102.4c-42.347 0-76.8 34.453-76.8 76.8v102.4c0 42.347 34.453 76.8 76.8 76.8h102.4c42.347 0 76.8-34.453 76.8-76.8v-102.4c0-42.347-34.453-76.8-76.8-76.8zM76.8 921.6c-14.115 0-25.6-11.485-25.6-25.6v-102.4c0-14.115 11.485-25.6 25.6-25.6h102.4c14.115 0 25.6 11.485 25.6 25.6v102.4c0 14.115-11.485 25.6-25.6 25.6h-102.4zM537.6 716.8h-102.4c-42.347 0-76.8 34.453-76.8 76.8v102.4c0 42.347 34.453 76.8 76.8 76.8h102.4c42.347 0 76.8-34.453 76.8-76.8v-102.4c0-42.347-34.453-76.8-76.8-76.8zM435.2 921.6c-14.115 0-25.6-11.485-25.6-25.6v-102.4c0-14.115 11.485-25.6 25.6-25.6h102.4c14.115 0 25.6 11.485 25.6 25.6v102.4c0 14.115-11.485 25.6-25.6 25.6h-102.4zM896 716.8h-102.4c-42.347 0-76.8 34.453-76.8 76.8v102.4c0 42.347 34.453 76.8 76.8 76.8h102.4c42.347 0 76.8-34.453 76.8-76.8v-102.4c0-42.347-34.453-76.8-76.8-76.8zM793.6 921.6c-14.115 0-25.6-11.485-25.6-25.6v-102.4c0-14.115 11.485-25.6 25.6-25.6h102.4c14.115 0 25.6 11.485 25.6 25.6v102.4c0 14.115-11.485 25.6-25.6 25.6h-102.4z" />
<glyph unicode="&#xe889;" glyph-name="happy" d="M486.4-51.2c-129.922 0-252.067 50.594-343.936 142.464s-142.464 214.014-142.464 343.936c0 129.923 50.595 252.067 142.464 343.936s214.013 142.464 343.936 142.464c129.922 0 252.067-50.595 343.936-142.464s142.464-214.014 142.464-343.936-50.594-252.067-142.464-343.936c-91.869-91.87-214.014-142.464-343.936-142.464zM486.4 870.4c-239.97 0-435.2-195.23-435.2-435.2s195.23-435.2 435.2-435.2 435.2 195.23 435.2 435.2-195.23 435.2-435.2 435.2zM332.8 563.2c-42.347 0-76.8 34.453-76.8 76.8s34.453 76.8 76.8 76.8 76.8-34.453 76.8-76.8-34.453-76.8-76.8-76.8zM332.8 665.6c-14.115 0-25.6-11.485-25.6-25.6s11.485-25.6 25.6-25.6 25.6 11.485 25.6 25.6-11.485 25.6-25.6 25.6zM640 563.2c-42.349 0-76.8 34.453-76.8 76.8s34.451 76.8 76.8 76.8 76.8-34.453 76.8-76.8-34.451-76.8-76.8-76.8zM640 665.6c-14.115 0-25.6-11.485-25.6-25.6s11.485-25.6 25.6-25.6 25.6 11.485 25.6 25.6-11.485 25.6-25.6 25.6zM486.4 102.4c-183.506 0-332.8 149.294-332.8 332.8 0 14.139 11.462 25.6 25.6 25.6h614.4c14.139 0 25.6-11.461 25.6-25.6 0-183.506-149.294-332.8-332.8-332.8zM205.954 409.6c12.97-143.33 133.797-256 280.446-256s267.477 112.67 280.446 256h-560.893z" />
<glyph unicode="&#xe89b;" glyph-name="wondering" d="M486.4-51.2c-129.922 0-252.067 50.594-343.936 142.464s-142.464 214.014-142.464 343.936c0 129.923 50.595 252.067 142.464 343.936s214.013 142.464 343.936 142.464c129.922 0 252.067-50.595 343.936-142.464s142.464-214.014 142.464-343.936-50.594-252.067-142.464-343.936c-91.869-91.87-214.014-142.464-343.936-142.464zM486.4 870.4c-239.97 0-435.2-195.23-435.2-435.2s195.23-435.2 435.2-435.2 435.2 195.23 435.2 435.2-195.23 435.2-435.2 435.2zM332.8 563.2c-42.347 0-76.8 34.453-76.8 76.8s34.453 76.8 76.8 76.8 76.8-34.453 76.8-76.8-34.453-76.8-76.8-76.8zM332.8 665.6c-14.115 0-25.6-11.485-25.6-25.6s11.485-25.6 25.6-25.6 25.6 11.485 25.6 25.6-11.485 25.6-25.6 25.6zM640 563.2c-42.349 0-76.8 34.453-76.8 76.8s34.451 76.8 76.8 76.8 76.8-34.453 76.8-76.8-34.451-76.8-76.8-76.8zM640 665.6c-14.115 0-25.6-11.485-25.6-25.6s11.485-25.6 25.6-25.6 25.6 11.485 25.6 25.6-11.485 25.6-25.6 25.6zM640.013 204.794c-2.328 0-4.696 0.32-7.045 0.99l-358.4 102.4c-13.595 3.885-21.467 18.054-17.582 31.648s18.054 21.456 31.648 17.582l358.4-102.4c13.594-3.885 21.466-18.054 17.582-31.648-3.213-11.243-13.464-18.573-24.603-18.573z" />
<glyph unicode="&#xe8a2;" glyph-name="ghost" d="M947.2-51.2c-84.24 0-128.296 21.168-160.462 36.626-17.61 8.461-30.333 14.574-44.338 14.574-17.848 0-32.654-9.87-49.8-21.299-21.022-14.016-44.848-29.901-78.2-29.901s-57.178 15.885-78.2 29.901c-17.146 11.429-31.95 21.299-49.8 21.299s-32.656-9.87-49.8-21.299c-21.022-14.016-44.85-29.901-78.2-29.901-33.869 0-59.272 16.357-81.685 30.787-17.013 10.954-31.704 20.413-46.315 20.413-11.264 0-23.277-5.717-39.904-13.629-33.323-15.856-78.958-37.571-164.896-37.571-14.138 0-25.6 11.461-25.6 25.6v460.8c0 129.923 50.595 252.067 142.464 343.936s214.013 142.464 343.936 142.464c129.922 0 252.067-50.595 343.936-142.464 91.87-91.869 142.464-214.014 142.464-343.936v-460.8c0-14.139-11.461-25.6-25.6-25.6zM486.4 51.2c33.352 0 57.178-15.885 78.2-29.901 17.146-11.429 31.952-21.299 49.8-21.299s32.654 9.87 49.8 21.299c21.022 14.016 44.848 29.901 78.2 29.901 25.667 0 45.507-9.533 66.512-19.627 25.613-12.306 56.706-27.246 112.688-30.792v434.419c0 239.97-195.23 435.2-435.2 435.2s-435.2-195.23-435.2-435.2v-434.434c57.915 3.584 90.486 19.082 117.298 31.838 20.096 9.562 39.078 18.595 61.902 18.595 29.669 0 53.237-15.174 74.032-28.565 18.864-12.146 35.155-22.635 53.968-22.635 17.85 0 32.656 9.87 49.8 21.299 21.022 14.016 44.85 29.901 78.2 29.901zM332.8 460.8c-42.347 0-76.8 34.453-76.8 76.8s34.453 76.8 76.8 76.8 76.8-34.453 76.8-76.8-34.453-76.8-76.8-76.8zM332.8 563.2c-14.115 0-25.6-11.485-25.6-25.6s11.485-25.6 25.6-25.6 25.6 11.485 25.6 25.6-11.485 25.6-25.6 25.6zM640 460.8c-42.349 0-76.8 34.453-76.8 76.8s34.451 76.8 76.8 76.8 76.8-34.453 76.8-76.8-34.451-76.8-76.8-76.8zM640 563.2c-14.115 0-25.6-11.485-25.6-25.6s11.485-25.6 25.6-25.6 25.6 11.485 25.6 25.6-11.485 25.6-25.6 25.6z" />
<glyph unicode="&#xe8ae;" glyph-name="bullhorn" d="M992.694 814.118c-29.611 88.835-68.928 107.482-96.694 107.482-0.584 0-1.176-0.011-1.771-0.029-28.322-0.598-78.627-15.33-153.997-37.41-157.898-46.258-396.514-116.162-637.832-116.162-58.378 0-102.4-77.038-102.4-179.2s44.022-179.2 102.4-179.2c18.891 0 37.765-0.429 56.584-1.24l85.306-339.347c9.73-38.699 48.608-69.013 88.51-69.013h67.2c22.17 0 40.986 9.23 51.622 25.322 10.635 16.091 11.75 37.019 3.061 57.416l-131.926 309.634c160.552-23.672 308.307-66.95 417.474-98.931 75.37-22.082 125.675-36.813 153.997-37.411 0.595-0.018 1.187-0.029 1.771-0.029 27.766 0 67.083 18.646 96.694 107.482 20.19 60.563 31.307 140.582 31.307 225.318 0 84.734-11.117 164.755-31.306 225.318zM819.2 588.8c0 26.266 1.122 51.965 3.285 76.616 26.291-2.642 47.915-36.642 47.915-76.616s-21.624-73.974-47.915-76.616c-2.163 24.651-3.285 50.35-3.285 76.616zM51.2 588.8c0 78.136 30.325 128 51.2 128 58.117 0 115.915 3.888 172.422 10.445-12.142-38.794-18.822-86.912-18.822-138.445 0-51.549 6.68-99.658 18.821-138.443-56.507 6.555-114.306 10.443-172.421 10.443-20.875 0-51.2 49.864-51.2 128zM407.579 62.669c2.099-4.928 1.93-8.208 1.328-9.117s-3.55-2.352-8.907-2.352h-67.2c-16.349 0-34.869 14.44-38.856 30.296l-81.33 323.53c17.157-1.379 34.235-3.046 51.213-4.966l143.752-337.39zM332.24 442.749c-15.587 35.173-25.040 89.509-25.040 146.051 0 57.422 9.238 110.73 25.011 146.046 163.054 24.2 312.094 67.861 422.414 100.179 21.243 6.224 41.526 12.165 59.938 17.344-5.285-11.019-10.402-23.686-15.256-38.253-20.19-60.562-31.307-140.582-31.307-225.317s11.117-164.755 31.306-225.318c4.854-14.566 9.971-27.234 15.256-38.253-18.411 5.181-38.694 11.122-59.938 17.346-110.314 32.317-259.341 75.974-422.384 100.174zM944.122 379.672c-19.107-57.325-39.832-72.472-48.122-72.472s-29.014 15.147-48.122 72.472c-8.024 24.069-14.48 51.678-19.222 81.701 24.888 2.87 48.298 16.95 65.33 39.658 17.808 23.744 27.614 54.914 27.614 87.77 0 32.854-9.806 64.026-27.614 87.768-17.034 22.709-40.442 36.789-65.33 39.659 4.742 30.024 11.198 57.632 19.222 81.699 19.109 57.326 39.832 72.474 48.122 72.474s29.013-15.147 48.122-72.472c18.494-55.482 28.678-129.75 28.678-209.128s-10.184-153.646-28.678-209.128z" />
<glyph unicode="&#xe8f9;" glyph-name="enter-left" d="M427.701 263.499c9.997 9.997 9.997 26.206 0 36.203l-109.898 109.898h629.397c14.138 0 25.6 11.462 25.6 25.6s-11.462 25.6-25.6 25.6h-629.397l109.899 109.899c9.997 9.997 9.997 26.206 0 36.203s-26.206 9.998-36.203 0l-153.6-153.6c-5-5-7.499-11.55-7.499-18.102s2.499-13.102 7.499-18.101l153.6-153.6c9.997-9.998 26.205-9.998 36.202 0zM0 128v614.4c0 42.347 34.451 76.8 76.8 76.8h512c42.347 0 76.8-34.453 76.8-76.8v-204.8c0-14.138-11.462-25.6-25.6-25.6s-25.6 11.462-25.6 25.6v204.8c0 14.115-11.485 25.6-25.6 25.6h-512c-14.115 0-25.6-11.485-25.6-25.6v-614.4c0-14.115 11.485-25.6 25.6-25.6h512c14.115 0 25.6 11.485 25.6 25.6v204.8c0 14.139 11.462 25.6 25.6 25.6s25.6-11.461 25.6-25.6v-204.8c0-42.349-34.453-76.8-76.8-76.8h-512c-42.349 0-76.8 34.451-76.8 76.8z" />
<glyph unicode="&#xe8fe;" glyph-name="exit-right" d="M0 128v614.4c0 42.347 34.453 76.8 76.8 76.8h512c42.347 0 76.8-34.453 76.8-76.8v-204.8c0-14.138-11.462-25.6-25.6-25.6s-25.6 11.462-25.6 25.6v204.8c0 14.115-11.485 25.6-25.6 25.6h-512c-14.115 0-25.6-11.485-25.6-25.6v-614.4c0-14.115 11.485-25.6 25.6-25.6h512c14.115 0 25.6 11.485 25.6 25.6v204.8c0 14.139 11.462 25.6 25.6 25.6s25.6-11.461 25.6-25.6v-204.8c0-42.347-34.453-76.8-76.8-76.8h-512c-42.347 0-76.8 34.453-76.8 76.8zM837.301 263.501l153.6 153.6c9.998 9.997 9.998 26.206 0 36.203l-153.6 153.6c-9.997 9.998-26.206 9.998-36.203 0-9.998-9.997-9.998-26.206 0-36.203l109.899-109.901h-578.197c-14.139 0-25.6-11.462-25.6-25.6s11.461-25.6 25.6-25.6h578.197l-109.898-109.901c-5-4.997-7.499-11.547-7.499-18.099s2.499-13.102 7.499-18.099c9.997-10 26.205-10 36.202 0z" />
<glyph unicode="&#xe900;" glyph-name="gesture-2finger-pinchout" d="M953.907 531.661c-3.942-3.328-9.83-2.867-13.21 1.126l-162.714 192.563c-22.118 26.266-59.443 31.283-83.302 11.315-25.088-21.094-27.648-55.142-5.99-80.947l40.192-47.872c3.328-4.045 2.816-9.984-1.178-13.414-3.994-3.277-9.984-2.867-13.363 1.178l-40.141 47.872c-28.314 33.638-24.678 79.974 8.294 107.674 31.898 26.778 81.254 20.634 109.978-13.619l162.662-192.563c3.379-3.942 2.867-9.882-1.229-13.312v0zM692.838 636.006c-3.994-3.328-9.984-2.816-13.312 1.126l-41.933 50.022c-22.016 26.214-56.883 30.771-81.152 10.394-24.218-20.275-25.856-55.552-3.891-81.766l41.933-49.971c3.328-3.994 2.867-9.933-1.178-13.363-4.045-3.328-10.035-2.816-13.363 1.126l-41.933 50.074c-28.928 34.509-26.317 81.152 6.246 108.442s78.899 21.811 107.878-12.698l41.882-50.022c3.379-3.942 2.816-9.933-1.178-13.363zM621.414 519.014c-3.994-3.328-9.984-2.867-13.363 1.178l-99.789 118.989c-22.067 26.266-56.934 30.72-81.203 10.342-24.32-20.378-26.010-55.552-3.942-81.818l71.731-85.504c3.328-3.942 2.816-9.933-1.178-13.312-4.045-3.379-10.035-2.816-13.363 1.178l-71.731 85.504c-28.979 34.509-26.266 81.152 6.298 108.442 32.512 27.29 78.95 21.862 107.93-12.646l99.789-118.938c3.379-4.096 2.816-9.984-1.178-13.414zM581.683 76.595c-2.867-2.458-7.117-3.072-10.65-1.075l-41.267 22.579c-25.242 18.074-46.080 37.018-74.957 63.283-10.291 9.318-21.606 19.61-34.458 31.078-87.603 78.234-184.678 78.746-185.702 78.746l-3.379 0.614c-42.189 15.974-62.771 58.010-47.923 97.638 14.592 38.912 47.053 56.269 91.187 48.845 3.379-0.563 84.736-13.926 145.408-50.125 4.506-2.714 5.99-8.55 3.277-12.954-2.611-4.608-8.499-6.042-12.954-3.328-57.6 34.202-138.035 47.565-138.854 47.718-35.686 5.939-58.675-6.093-70.246-36.864-10.957-29.082 4.198-60.058 35.277-72.602 14.899-0.307 109.158-5.376 196.454-83.558 12.954-11.571 24.32-21.811 34.56-31.232 28.467-25.805 48.998-44.493 72.346-61.286l40.243-21.965c4.608-2.458 6.349-8.243 3.789-12.851-0.512-1.024-1.28-1.946-2.15-2.662zM450.048 318.464c-4.045-3.328-10.035-2.816-13.363 1.178l-336.435 400.896c-28.979 34.611-26.317 81.254 6.195 108.544 32.614 27.29 79.002 21.862 107.981-12.698l308.48-367.616c3.43-4.045 2.867-9.984-1.126-13.414-4.045-3.328-9.933-2.867-13.363 1.229l-308.48 367.616c-22.016 26.266-57.037 30.669-81.254 10.342-24.269-20.378-25.907-55.501-3.942-81.766l336.486-400.947c3.328-3.994 2.816-9.933-1.178-13.363zM917.197 166.554l-34.56-28.979c-156.672-131.379-276.122-83.917-320.256-57.446-4.506 2.714-5.939 8.55-3.277 13.056 2.816 4.454 8.55 5.939 13.056 3.226 40.602-24.474 150.989-67.84 298.291 55.706l34.56 28.979c143.104 120.115 112.333 260.403 35.738 351.59-3.379 4.096-2.918 10.035 1.075 13.414 4.096 3.379 9.984 2.867 13.414-1.178 125.901-150.067 58.163-297.574-38.042-378.368zM76.134 584.141c0-3.123-1.434-6.042-4.198-7.936l-57.242-38.042c-4.403-2.816-10.189-1.69-13.158 2.714-2.816 4.352-1.587 10.291 2.714 13.158l57.19 37.99c4.403 2.918 10.24 1.69 13.21-2.662 1.024-1.638 1.485-3.43 1.485-5.222zM133.632 546.509c0-1.843-0.41-3.584-1.485-5.222-2.867-4.352-8.755-5.632-13.107-2.714l-57.549 37.581c-4.403 2.918-5.632 8.858-2.765 13.158 2.867 4.403 8.806 5.632 13.107 2.765l57.549-37.581c2.765-1.946 4.25-4.915 4.25-7.987zM76.851 389.222c0-5.222-4.25-9.472-9.472-9.472s-9.523 4.25-9.523 9.421l-0.563 187.75c0 5.274 4.198 9.472 9.472 9.472 5.222 0.051 9.523-4.147 9.523-9.421l0.563-187.75zM57.498 59.085c0 3.123 1.434 6.042 4.198 7.936l57.242 37.99c4.403 2.867 10.189 1.69 13.158-2.714 2.816-4.352 1.587-10.291-2.714-13.158l-57.19-37.939c-4.403-2.918-10.24-1.69-13.21 2.662-1.024 1.587-1.485 3.43-1.485 5.222zM0 96.666c0 1.843 0.41 3.584 1.485 5.222 2.867 4.403 8.755 5.632 13.107 2.765l57.6-37.581c4.403-2.918 5.581-8.858 2.765-13.158-2.867-4.403-8.858-5.581-13.158-2.765l-57.549 37.581c-2.765 1.894-4.25 4.915-4.25 7.936zM56.73 253.952c0 5.222 4.25 9.472 9.472 9.472 5.274 0.051 9.574-4.198 9.574-9.472l0.563-187.699c0-5.274-4.198-9.472-9.472-9.472-5.222-0.051-9.523 4.147-9.523 9.421l-0.614 187.75z" />
</font>
</defs>
</svg>
